eztv.yt | Sunday 26th of June 2022 06:48 PM ET
Search title:  
 

Obi Wan Kenobi S01E03 2160p WEB-DL DDPA5 1 DV HEVC-FLUX EZTV

Episode Breakdown
Obi-Wan Kenobi
Obi-Wan Kenobi TV Show S01E03

Season: 1
Episode: 3
Air Date: 1 June, 2022
Download Links
     Torrent Download     Magnet Download
     Anonymous Download
Added 24 days ago by eztv (verified).
Tracker Statistics
Seeds: 56
Peers: 9
Stats generated @ 18:48 on 26th Jun 2022
Torrent Info
Torrent File: Obi.Wan.Kenobi.S01E03.Part.III.2160p.WEB-DL.DDP5.1.Atmos.DV.HEVC-FLUX[eztv.re].mkv
Torrent Hash: E341134F59180731B37B34A8F90A8FBC1991BC29
Filesize: 7.11 GB
Released: 1st Jun 2022

File Format: MKV (Matroska)
Resolution: 720x404 px
Aspect Ratio: 16:9
Alternate Releases S L
Obi-Wan Kenobi S01E03 720p WEB h264-KOGi 283 19
Obi-Wan Kenobi S01E03 AAC MP4-Mobile 8 1
Obi-Wan Kenobi S01E03 480p x264-mSD 48 10
Obi-Wan Kenobi S01E03 720p HEVC x265-MeGusta 495 247
Obi-Wan Kenobi S01E03 1080P WEB H264-POKE 503 66
Obi-Wan Kenobi S01E03 XviD-AFG 77 4
Obi-Wan Kenobi S01E03 HDR 2160p WEB h265-KOGi [NO RAR] 115 30

Obi-Wan Kenobi S01E03 - Part III

Summary:

Obi-Wan searches for allies.



Obi Wan Kenobi S01E03 2160p WEB-DL DDPA5 1 DV HEVC-FLUX EZTV
Obi-Wan Kenobi S1E3 Screenshot


Obi-Wan Kenobi S01E03 (2022)



General

Complete name : Obi.Wan.Kenobi.S01E03.2160p.WEB-DL.DDPA5.1.DV.HEVC-FLUX/Obi.Wan.Kenobi.S01E03.Part.III.2160p.WEB-DL.DDP5.1.Atmos.DV.HEVC-FLUX.mkv
Format : Matroska
Format version : Version 4
File size : 7.11 GiB
Duration : 44 min 37 s
Overall bit rate : 22.8 Mb/s
Encoded date : UTC 2022-06-01 07:19:08
Writing application : mkvmerge v68.0.0 ('The Curtain') 64-bit
Writing library : libebml v1.4.2 + libmatroska v1.6.4

Video
ID : 1
Format : HEVC
Format/Info : High Efficiency Video Coding
Format profile : Main [email protected]@Main
HDR format : Dolby Vision, Version 1.0, dvhe.05.06, BL+RPU
Codec ID : V_MPEGH/ISO/HEVC
Duration : 44 min 37 s
Bit rate : 22.0 Mb/s
Width : 3 840 pixels
Height : 2 160 pixels
Display aspect ratio : 16:9
Frame rate mode : Constant
Frame rate : 24.000 FPS
Color space : YUV
Chroma subsampling : 4:2:0 (Type 0)
Bit depth : 10 bits
Bits/(Pixel*Frame) : 0.111
Stream size : 6.87 GiB (97%)
Default : No
Forced : No
Color range : Full

Audio
ID : 2
Format : E-AC-3 JOC
Format/Info : Enhanced AC-3 with Joint Object Coding
Commercial name : Dolby Digital Plus with Dolby Atmos
Codec ID : A_EAC3
Duration : 44 min 37 s
Bit rate mode : Constant
Bit rate : 768 kb/s
Channel(s) : 6 channels
Channel layout : L R C LFE Ls Rs
Sampling rate : 48.0 kHz
Frame rate : 31.250 FPS (1536 SPF)
Compression mode : Lossy
Stream size : 245 MiB (3%)
Language : English
Service kind : Complete Main
Default : No
Forced : No
Complexity index : 16
Number of dynamic objects : 15
Bed channel count : 1 channel
Bed channel configuration : LFE

Text #1
ID : 3
Format : UTF-8
Codec ID : S_TEXT/UTF8
Codec ID/Info : UTF-8 Plain Text
Duration : 40 min 41 s
Bit rate : 38 b/s
Count of elements : 382
Stream size : 11.5 KiB (0%)
Language : English
Default : No
Forced : No

Text #2
ID : 4
Format : UTF-8
Codec ID : S_TEXT/UTF8
Codec ID/Info : UTF-8 Plain Text
Duration : 40 min 50 s
Bit rate : 47 b/s
Count of elements : 465
Stream size : 14.2 KiB (0%)
Title : SDH
Language : English
Default : No
Forced : No

Text #3
ID : 5
Format : UTF-8
Codec ID : S_TEXT/UTF8
Codec ID/Info : UTF-8 Plain Text
Duration : 44 min 22 s
Bit rate : 30 b/s
Count of elements : 386
Stream size : 10.0 KiB (0%)
Title : Hong Kong
Language : Chinese
Default : No
Forced : No

Text #4
ID : 6
Format : UTF-8
Codec ID : S_TEXT/UTF8
Codec ID/Info : UTF-8 Plain Text
Duration : 44 min 22 s
Bit rate : 30 b/s
Count of elements : 386
Stream size : 9.86 KiB (0%)
Title : Simplified
Language : Chinese
Default : No
Forced : No

Text #5
ID : 7
Format : UTF-8
Codec ID : S_TEXT/UTF8
Codec ID/Info : UTF-8 Plain Text
Duration : 44 min 22 s
Bit rate : 27 b/s
Count of elements : 383
Stream size : 8.80 KiB (0%)
Title : Traditional
Language : Chinese
Default : No
Forced : No

Text #6
ID : 8
Format : UTF-8
Codec ID : S_TEXT/UTF8
Codec ID/Info : UTF-8 Plain Text
Duration : 44 min 22 s
Bit rate : 31 b/s
Count of elements : 380
Stream size : 10.4 KiB (0%)
Language : Czech
Default : No
Forced : No

Text #7
ID : 9
Format : UTF-8
Codec ID : S_TEXT/UTF8
Codec ID/Info : UTF-8 Plain Text
Duration : 44 min 22 s
Bit rate : 31 b/s
Count of elements : 283
Stream size : 10.3 KiB (0%)
Language : Danish
Default : No
Forced : No

Text #8
ID : 10
Format : UTF-8
Codec ID : S_TEXT/UTF8
Codec ID/Info : UTF-8 Plain Text
Duration : 44 min 22 s
Bit rate : 37 b/s
Count of elements : 403
Stream size : 12.2 KiB (0%)
Language : German
Default : No
Forced : No

Text #9
ID : 11
Format : UTF-8
Codec ID : S_TEXT/UTF8
Codec ID/Info : UTF-8 Plain Text
Duration : 44 min 22 s
Bit rate : 34 b/s
Count of elements : 384
Stream size : 11.2 KiB (0%)
Title : Latin American
Language : Spanish
Default : No
Forced : No

Text #10
ID : 12
Format : UTF-8
Codec ID : S_TEXT/UTF8
Codec ID/Info : UTF-8 Plain Text
Duration : 44 min 22 s
Bit rate : 34 b/s
Count of elements : 381
Stream size : 11.3 KiB (0%)
Title : European
Language : Spanish
Default : No
Forced : No

Text #11
ID : 13
Format : UTF-8
Codec ID : S_TEXT/UTF8
Codec ID/Info : UTF-8 Plain Text
Duration : 40 min 41 s
Bit rate : 35 b/s
Count of elements : 402
Stream size : 10.5 KiB (0%)
Title : Canadian
Language : French
Default : No
Forced : No

Text #12
ID : 14
Format : UTF-8
Codec ID : S_TEXT/UTF8
Codec ID/Info : UTF-8 Plain Text
Duration : 44 min 22 s
Bit rate : 31 b/s
Count of elements : 391
Stream size : 10.4 KiB (0%)
Language : French
Default : No
Forced : No

Text #13
ID : 15
Format : UTF-8
Codec ID : S_TEXT/UTF8
Codec ID/Info : UTF-8 Plain Text
Duration : 44 min 22 s
Bit rate : 60 b/s
Count of elements : 382
Stream size : 19.7 KiB (0%)
Language : Greek
Default : No
Forced : No

Text #14
ID : 16
Format : UTF-8
Codec ID : S_TEXT/UTF8
Codec ID/Info : UTF-8 Plain Text
Duration : 44 min 22 s
Bit rate : 32 b/s
Count of elements : 374
Stream size : 10.6 KiB (0%)
Language : Hungarian
Default : No
Forced : No

Text #15
ID : 17
Format : UTF-8
Codec ID : S_TEXT/UTF8
Codec ID/Info : UTF-8 Plain Text
Duration : 44 min 22 s
Bit rate : 34 b/s
Count of elements : 384
Stream size : 11.3 KiB (0%)
Language : Italian
Default : No
Forced : No

Text #16
ID : 18
Format : UTF-8
Codec ID : S_TEXT/UTF8
Codec ID/Info : UTF-8 Plain Text
Duration : 44 min 22 s
Bit rate : 31 b/s
Count of elements : 380
Stream size : 10.2 KiB (0%)
Language : Japanese
Default : No
Forced : No

Text #17
ID : 19
Format : UTF-8
Codec ID : S_TEXT/UTF8
Codec ID/Info : UTF-8 Plain Text
Duration : 44 min 22 s
Bit rate : 37 b/s
Count of elements : 377
Stream size : 12.2 KiB (0%)
Language : Korean
Default : No
Forced : No

Text #18
ID : 20
Format : UTF-8
Codec ID : S_TEXT/UTF8
Codec ID/Info : UTF-8 Plain Text
Duration : 44 min 22 s
Bit rate : 31 b/s
Count of elements : 335
Stream size : 10.2 KiB (0%)
Language : Dutch
Default : No
Forced : No

Text #19
ID : 21
Format : UTF-8
Codec ID : S_TEXT/UTF8
Codec ID/Info : UTF-8 Plain Text
Duration : 44 min 22 s
Bit rate : 31 b/s
Count of elements : 384
Stream size : 10.2 KiB (0%)
Language : Norwegian
Default : No
Forced : No

Text #20
ID : 22
Format : UTF-8
Codec ID : S_TEXT/UTF8
Codec ID/Info : UTF-8 Plain Text
Duration : 44 min 22 s
Bit rate : 31 b/s
Count of elements : 371
Stream size : 10.3 KiB (0%)
Language : Polish
Default : No
Forced : No

Text #21
ID : 23
Format : UTF-8
Codec ID : S_TEXT/UTF8
Codec ID/Info : UTF-8 Plain Text
Duration : 44 min 22 s
Bit rate : 33 b/s
Count of elements : 382
Stream size : 10.9 KiB (0%)
Language : Portuguese
Default : No
Forced : No

Text #22
ID : 24
Format : UTF-8
Codec ID : S_TEXT/UTF8
Codec ID/Info : UTF-8 Plain Text
Duration : 44 min 22 s
Bit rate : 36 b/s
Count of elements : 384
Stream size : 11.9 KiB (0%)
Title : Brazilian
Language : Portuguese
Default : No
Forced : No

Text #23
ID : 25
Format : UTF-8
Codec ID : S_TEXT/UTF8
Codec ID/Info : UTF-8 Plain Text
Duration : 44 min 22 s
Bit rate : 33 b/s
Count of elements : 383
Stream size : 10.9 KiB (0%)
Language : Romanian
Default : No
Forced : No

Text #24
ID : 26
Format : UTF-8
Codec ID : S_TEXT/UTF8
Codec ID/Info : UTF-8 Plain Text
Duration : 44 min 22 s
Bit rate : 33 b/s
Count of elements : 384
Stream size : 10.9 KiB (0%)
Language : Slovak
Default : No
Forced : No

Text #25
ID : 27
Format : UTF-8
Codec ID : S_TEXT/UTF8
Codec ID/Info : UTF-8 Plain Text
Duration : 44 min 22 s
Bit rate : 34 b/s
Count of elements : 375
Stream size : 11.1 KiB (0%)
Language : Finnish
Default : No
Forced : No

Text #26
ID : 28
Format : UTF-8
Codec ID : S_TEXT/UTF8
Codec ID/Info : UTF-8 Plain Text
Duration : 44 min 22 s
Bit rate : 33 b/s
Count of elements : 321
Stream size : 10.9 KiB (0%)
Language : Swedish
Default : No
Forced : No

Text #27
ID : 29
Format : UTF-8
Codec ID : S_TEXT/UTF8
Codec ID/Info : UTF-8 Plain Text
Duration : 44 min 22 s
Bit rate : 36 b/s
Count of elements : 385
Stream size : 11.8 KiB (0%)
Language : Turkish
Default : No
Forced : No

Source - FLUX
Shared By - Will1869

https://www.imdb.com/title/tt8466564/



Stars: Ewan McGregor, Hayden Christensen, Vivien Lyra Blair
   


Jedi Master Obi-Wan Kenobi watches over young Luke Skywalker and evades the Empire's elite Jedi hunters during his exile on the desert planet Tatooine.





















Press Here to add Rep point
ssl  EZTV RSS EZTV Status | EZTV API | DMCA: [email protected]