eztv.yt | Sunday 27th of November 2022 11:19 AM ET
Search title:  
 

Westworld S04E06 Fidelity 1080p HMAX WEB-DL DD5 1 x264-NTb EZTV

Episode Breakdown
Westworld
Westworld TV Show S04E06

Season: 4
Episode: 6
Air Date: 31 July, 2022
Download Links
     Torrent Download     Magnet Download
     Anonymous Download
Added 3 months ago by eztv (verified).
Tracker Statistics
Seeds: 9
Peers: 1
Stats generated @ 11:19 on 27th Nov 2022
Torrent Info
Torrent File: Westworld.S04E06.Fidelity.1080p.HMAX.WEB-DL.DD5.1.x264-NTb[eztv.re].mkv
Torrent Hash: BB579403C0138D092E9D72D9ADC9E5CB0CB5026C
Filesize: 3.49 GB
Released: 10th Aug 2022

File Format: MKV (Matroska)
Resolution: 1920x1080 px
Aspect Ratio: 16:9
Alternate Releases S L
Westworld S04E06 720p WEB h264-KOGi 58 1
Westworld S04E06 480p x264-mSD 13 3
Westworld S04E06 720p HEVC x265-MeGusta 55 3
Westworld S04E06 XviD-AFG 8 2
Westworld S04E06 Fidelity 1080p AMZN WEBRip DD5 1 X 264-EVO 35 4

Westworld S04E06 - Fidelity

Summary:

To thine own selves be true.



Westworld S04E06 Fidelity 1080p HMAX WEB-DL DD5 1 x264-NTb EZTV
Westworld S4E6 Screenshot

General
Unique ID                                : 135910557408714272913999942233481499090 (0x663F6BD58B63B4B98E44D09C663751D2)
Complete name                            : R:\Captures\seed\Westworld.S04E06.Fidelity.1080p.HMAX.WEB-DL.DD5.1.x264-NTb.mkv
Format                                   : Matroska
Format version                           : Version 4
File size                                : 3.49 GiB
Duration                                 : 58 min 0 s
Overall bit rate mode                    : Variable
Overall bit rate                         : 8 610 kb/s
Writing application                      : mkvmerge v68.0.0 ('The Curtain') 64-bit
Writing library                          : libebml v1.4.2 + libmatroska v1.6.4

Video
ID                                       : 1
Format                                   : AVC
Format/Info                              : Advanced Video Codec
Format profile                           : [email protected]
Format settings                          : CABAC / 4 Ref Frames
Format settings, CABAC                   : Yes
Format settings, Reference frames        : 4 frames
Codec ID                                 : V_MPEG4/ISO/AVC
Duration                                 : 58 min 0 s
Bit rate mode                            : Variable
Bit rate                                 : 8 250 kb/s
Maximum bit rate                         : 12.4 Mb/s
Width                                    : 1 920 pixels
Height                                   : 1 080 pixels
Display aspect ratio                     : 16:9
Frame rate mode                          : Constant
Frame rate                               : 23.976 (24000/1001) FPS
Color space                              : YUV
Chroma subsampling                       : 4:2:0
Bit depth                                : 8 bits
Scan type                                : Progressive
Bits/(Pixel*Frame)                       : 0.166
Stream size                              : 3.33 GiB (96%)
Writing library                          : x264 core 157 r2965 861cec4
Encoding settings                        : cabac=1 / ref=4 / deblock=1:0:0 / analyse=0x3:0x113 / me=hex / subme=7 / psy=1 / psy_rd=1.00:0.00 / mixed_ref=1 / me_range=16 / chroma_me=1 / trellis=1 / 8x8dct=1 / cqm=0 / deadzone=21,11 / fast_pskip=1 / chroma_qp_offset=-2 / threads=34 / lookahead_threads=5 / sliced_threads=0 / nr=0 / decimate=1 / interlaced=0 / bluray_compat=0 / constrained_intra=0 / bframes=3 / b_pyramid=2 / b_adapt=1 / b_bias=0 / direct=1 / weightb=1 / open_gop=0 / weightp=2 / keyint=96 / keyint_min=96 / scenecut=40 / intra_refresh=0 / rc_lookahead=40 / rc=2pass / mbtree=1 / bitrate=8250 / ratetol=1.0 / qcomp=0.60 / qpmin=0 / qpmax=69 / qpstep=4 / cplxblur=20.0 / qblur=0.5 / vbv_maxrate=12375 / vbv_bufsize=6187 / nal_hrd=vbr / filler=0 / ip_ratio=1.40 / aq=1:1.00
Default                                  : Yes
Forced                                   : No
Color range                              : Limited
Color primaries                          : BT.709
Transfer characteristics                 : BT.709
Matrix coefficients                      : BT.709

Audio
ID                                       : 2
Format                                   : AC-3
Format/Info                              : Audio Coding 3
Commercial name                          : Dolby Digital
Codec ID                                 : A_AC3
Duration                                 : 58 min 0 s
Bit rate mode                            : Constant
Bit rate                                 : 384 kb/s
Channel(s)                               : 6 channels
Channel layout                           : L R C LFE Ls Rs
Sampling rate                            : 48.0 kHz
Frame rate                               : 31.250 FPS (1536 SPF)
Compression mode                         : Lossy
Stream size                              : 159 MiB (4%)
Language                                 : English
Service kind                             : Complete Main
Default                                  : Yes
Forced                                   : No

Text #1
ID                                       : 3
Format                                   : UTF-8
Codec ID                                 : S_TEXT/UTF8
Codec ID/Info                            : UTF-8 Plain Text
Duration                                 : 56 min 48 s
Bit rate                                 : 34 b/s
Frame rate                               : 0.164 FPS
Count of elements                        : 560
Stream size                              : 14.4 KiB (0%)
Language                                 : English
Default                                  : No
Forced                                   : No

Text #2
ID                                       : 4
Format                                   : UTF-8
Codec ID                                 : S_TEXT/UTF8
Codec ID/Info                            : UTF-8 Plain Text
Duration                                 : 57 min 43 s
Bit rate                                 : 43 b/s
Frame rate                               : 0.211 FPS
Count of elements                        : 730
Stream size                              : 18.3 KiB (0%)
Title                                    : SDH
Language                                 : English
Default                                  : No
Forced                                   : No

Text #3
ID                                       : 5
Format                                   : UTF-8
Codec ID                                 : S_TEXT/UTF8
Codec ID/Info                            : UTF-8 Plain Text
Duration                                 : 56 min 43 s
Bit rate                                 : 36 b/s
Frame rate                               : 0.174 FPS
Count of elements                        : 592
Stream size                              : 15.4 KiB (0%)
Language                                 : Spanish
Default                                  : No
Forced                                   : No

Text #4
ID                                       : 6
Format                                   : UTF-8
Codec ID                                 : S_TEXT/UTF8
Codec ID/Info                            : UTF-8 Plain Text
Duration                                 : 56 min 43 s
Bit rate                                 : 41 b/s
Frame rate                               : 0.201 FPS
Count of elements                        : 684
Stream size                              : 17.3 KiB (0%)
Title                                    : SDH
Language                                 : Spanish
Default                                  : No
Forced                                   : No

Text #5
ID                                       : 7
Format                                   : UTF-8
Codec ID                                 : S_TEXT/UTF8
Codec ID/Info                            : UTF-8 Plain Text
Duration                                 : 56 min 27 s
Bit rate                                 : 55 b/s
Frame rate                               : 0.131 FPS
Count of elements                        : 443
Stream size                              : 23.0 KiB (0%)
Language                                 : Bulgarian
Default                                  : No
Forced                                   : No

Text #6
ID                                       : 8
Format                                   : UTF-8
Codec ID                                 : S_TEXT/UTF8
Codec ID/Info                            : UTF-8 Plain Text
Duration                                 : 56 min 22 s
Bit rate                                 : 30 b/s
Frame rate                               : 0.135 FPS
Count of elements                        : 455
Stream size                              : 12.6 KiB (0%)
Language                                 : Czech
Default                                  : No
Forced                                   : No

Text #7
ID                                       : 9
Format                                   : UTF-8
Codec ID                                 : S_TEXT/UTF8
Codec ID/Info                            : UTF-8 Plain Text
Duration                                 : 56 min 22 s
Bit rate                                 : 32 b/s
Frame rate                               : 0.117 FPS
Count of elements                        : 395
Stream size                              : 13.4 KiB (0%)
Language                                 : Danish
Default                                  : No
Forced                                   : No

Text #8
ID                                       : 10
Format                                   : UTF-8
Codec ID                                 : S_TEXT/UTF8
Codec ID/Info                            : UTF-8 Plain Text
Duration                                 : 57 min 24 s
Bit rate                                 : 32 b/s
Frame rate                               : 0.127 FPS
Count of elements                        : 439
Stream size                              : 13.6 KiB (0%)
Language                                 : Finnish
Default                                  : No
Forced                                   : No

Text #9
ID                                       : 11
Format                                   : UTF-8
Codec ID                                 : S_TEXT/UTF8
Codec ID/Info                            : UTF-8 Plain Text
Duration                                 : 56 min 36 s
Bit rate                                 : 30 b/s
Frame rate                               : 0.105 FPS
Count of elements                        : 357
Stream size                              : 12.7 KiB (0%)
Language                                 : Croatian
Default                                  : No
Forced                                   : No

Text #10
ID                                       : 12
Format                                   : UTF-8
Codec ID                                 : S_TEXT/UTF8
Codec ID/Info                            : UTF-8 Plain Text
Duration                                 : 56 min 27 s
Bit rate                                 : 34 b/s
Frame rate                               : 0.135 FPS
Count of elements                        : 457
Stream size                              : 14.1 KiB (0%)
Language                                 : Hungarian
Default                                  : No
Forced                                   : No

Text #11
ID                                       : 13
Format                                   : UTF-8
Codec ID                                 : S_TEXT/UTF8
Codec ID/Info                            : UTF-8 Plain Text
Duration                                 : 56 min 36 s
Bit rate                                 : 55 b/s
Frame rate                               : 0.105 FPS
Count of elements                        : 357
Stream size                              : 23.1 KiB (0%)
Language                                 : Macedonian
Default                                  : No
Forced                                   : No

Text #12
ID                                       : 14
Format                                   : UTF-8
Codec ID                                 : S_TEXT/UTF8
Codec ID/Info                            : UTF-8 Plain Text
Duration                                 : 56 min 23 s
Bit rate                                 : 33 b/s
Frame rate                               : 0.103 FPS
Count of elements                        : 350
Stream size                              : 13.7 KiB (0%)
Language                                 : Dutch
Default                                  : No
Forced                                   : No

Text #13
ID                                       : 15
Format                                   : UTF-8
Codec ID                                 : S_TEXT/UTF8
Codec ID/Info                            : UTF-8 Plain Text
Duration                                 : 57 min 24 s
Bit rate                                 : 31 b/s
Frame rate                               : 0.108 FPS
Count of elements                        : 373
Stream size                              : 13.3 KiB (0%)
Language                                 : Norwegian
Default                                  : No
Forced                                   : No

Text #14
ID                                       : 16
Format                                   : UTF-8
Codec ID                                 : S_TEXT/UTF8
Codec ID/Info                            : UTF-8 Plain Text
Duration                                 : 56 min 29 s
Bit rate                                 : 28 b/s
Frame rate                               : 0.116 FPS
Count of elements                        : 393
Stream size                              : 11.8 KiB (0%)
Language                                 : Polish
Default                                  : No
Forced                                   : No

Text #15
ID                                       : 17
Format                                   : UTF-8
Codec ID                                 : S_TEXT/UTF8
Codec ID/Info                            : UTF-8 Plain Text
Duration                                 : 57 min 24 s
Bit rate                                 : 33 b/s
Frame rate                               : 0.128 FPS
Count of elements                        : 441
Stream size                              : 14.0 KiB (0%)
Language                                 : Portuguese
Default                                  : No
Forced                                   : No

Text #16
ID                                       : 18
Format                                   : UTF-8
Codec ID                                 : S_TEXT/UTF8
Codec ID/Info                            : UTF-8 Plain Text
Duration                                 : 56 min 27 s
Bit rate                                 : 35 b/s
Frame rate                               : 0.136 FPS
Count of elements                        : 461
Stream size                              : 14.5 KiB (0%)
Language                                 : Romanian
Default                                  : No
Forced                                   : No

Text #17
ID                                       : 19
Format                                   : UTF-8
Codec ID                                 : S_TEXT/UTF8
Codec ID/Info                            : UTF-8 Plain Text
Duration                                 : 56 min 36 s
Bit rate                                 : 30 b/s
Frame rate                               : 0.105 FPS
Count of elements                        : 357
Stream size                              : 12.5 KiB (0%)
Language                                 : Slovenian
Default                                  : No
Forced                                   : No

Text #18
ID                                       : 20
Format                                   : UTF-8
Codec ID                                 : S_TEXT/UTF8
Codec ID/Info                            : UTF-8 Plain Text
Duration                                 : 56 min 36 s
Bit rate                                 : 30 b/s
Frame rate                               : 0.105 FPS
Count of elements                        : 357
Stream size                              : 12.8 KiB (0%)
Language                                 : Serbian
Default                                  : No
Forced                                   : No

Text #19
ID                                       : 21
Format                                   : UTF-8
Codec ID                                 : S_TEXT/UTF8
Codec ID/Info                            : UTF-8 Plain Text
Duration                                 : 57 min 22 s
Bit rate                                 : 33 b/s
Frame rate                               : 0.112 FPS
Count of elements                        : 385
Stream size                              : 13.9 KiB (0%)
Language                                 : Swedish
Default                                  : No
Forced                                   : No

Menu
00:00:00.000                             : en:Chapter 1
00:07:07.010                             : en:Intro
00:08:44.942                             : en:Chapter 2
00:56:50.000                             : en:Credits



ssl  EZTV RSS EZTV Status | EZTV API | DMCA: [email protected]