eztv.yt | eztvstatus.org
Search title:  
TV Packs only
 

Ted Lasso S03E01 Smells Like Mean Spirit 720p ATVP WEBRip DDP5 1 x264-NTb EZTV

Episode Breakdown
Ted Lasso
Ted Lasso TV Show S03E01

Season: 3
Episode: 1
Air Date: 15 March, 2023
Download Links
     Torrent Download     Magnet Download
     Anonymous Download
Added 1 year ago by eztv (verified).
Tracker Statistics
Seeds: 4
Peers: 0
Stats generated @ 09:19 on 22nd Jun 2024
Torrent Info
Torrent File: Ted.Lasso.S03E01.Smells.Like.Mean.Spirit.720p.ATVP.WEB-DL.DDP5.1.H.264-NTb[eztv.re].mkv
Torrent Hash: D388194D88C888D81B883E223B98A6E3D447907B
Filesize: 1.11 GB
Released: 15th Mar 2023

File Format: MKV (Matroska)
Resolution: 1280x720 px
Aspect Ratio: 16:9
Alternate Releases S L
Ted Lasso S03E01 1080p WEB H264-GGWP 21 0
Ted Lasso S03E01 1080p HEVC x265-MeGusta 80 11
Ted Lasso S03E01 XviD-AFG 6 0
Ted Lasso S03E01 1080p WEBRip 10bit DDP5.1 x265-HODL 15 0
Ted Lasso S03E01 Smells Like Mean Spirit 1080p ATVP WEBRip DDP5 1 x264-NTb 21 1
Ted Lasso S03E01 MULTI 1080p WEB H264-HiggsBoson 6 0
Ted Lasso S03E01 Smells Like Mean Spirit 1080p ATVP WEB-DL DDP5 1 H 264-NTb 21 1

Ted Lasso S03E01 - Smells Like Mean Spirit

Summary:

The newly promoted AFC Richmond face mockery as pundits predict they'll finish dead last this season.



Ted Lasso S03E01 Smells Like Mean Spirit 720p ATVP WEBRip DDP5 1 x264-NTb EZTV
Ted Lasso S3E1 Screenshot
General
Unique ID: 337072304243563913593663167936278878877 (0xFD95C3B0CEE3B531857EEE047698DA9D)
Complete name: Ted.Lasso.S03E01.Smells.Like.Mean.Spirit.720p.ATVP.WEB-DL.DDP5.1.H.264-NTb.mkv
Format: Matroska
Format version: Version 4
File size: 1.11 GiB
Duration: 43 min 38 s
Overall bit rate: 3 625 kb/s
Writing application: mkvmerge v74.0.0 ('You Oughta Know') 64-bit
Writing library: libebml v1.4.4 + libmatroska v1.7.1

Video
ID: 1
Format: AVC
Format/Info: Advanced Video Codec
Format profile: [email protected]
Format settings: CABAC / 5 Ref Frames
Format settings, CABAC: Yes
Format settings, Reference frames: 5 frames
Codec ID: V_MPEG4/ISO/AVC
Duration: 43 min 38 s
Bit rate: 2 847 kb/s
Width: 1 356 pixels
Height: 678 pixels
Display aspect ratio: 2.000
Frame rate mode: Constant
Frame rate: 23.976 (24000/1001) FPS
Color space: YUV
Chroma subsampling: 4:2:0
Bit depth: 8 bits
Scan type: Progressive
Bits/(Pixel*Frame): 0.129
Stream size: 889 MiB (79%)
Default: Yes
Forced: No
Color range: Limited
Color primaries: BT.709
Transfer characteristics: BT.709
Matrix coefficients: BT.709

Audio
ID: 2
Format: E-AC-3 JOC
Format/Info: Enhanced AC-3 with Joint Object Coding
Commercial name: Dolby Digital Plus with Dolby Atmos
Codec ID: A_EAC3
Duration: 43 min 38 s
Bit rate mode: Constant
Bit rate: 768 kb/s
Channel(s): 6 channels
Channel layout: L R C LFE Ls Rs
Sampling rate: 48.0 kHz
Frame rate: 31.250 FPS (1536 SPF)
Compression mode: Lossy
Stream size: 240 MiB (21%)
Language: English
Service kind: Complete Main
Default: Yes
Forced: No
Complexity index: 16
Number of dynamic objects: 15
Bed channel count: 1 channel
Bed channel configuration: LFE

Text #1
ID: 3
Format: UTF-8
Codec ID: S_TEXT/UTF8
Codec ID/Info: UTF-8 Plain Text
Duration: 42 min 41 s
Bit rate: 91 b/s
Frame rate: 0.307 FPS
Count of elements: 787
Stream size: 28.6 KiB (0%)
Language: English
Default: No
Forced: No

Text #2
ID: 4
Format: UTF-8
Codec ID: S_TEXT/UTF8
Codec ID/Info: UTF-8 Plain Text
Duration: 42 min 43 s
Bit rate: 105 b/s
Frame rate: 0.353 FPS
Count of elements: 904
Stream size: 33.0 KiB (0%)
Title: SDH
Language: English
Default: No
Forced: No

Text #3
ID: 5
Format: UTF-8
Codec ID: S_TEXT/UTF8
Codec ID/Info: UTF-8 Plain Text
Duration: 43 min 28 s
Bit rate: 127 b/s
Frame rate: 0.312 FPS
Count of elements: 813
Stream size: 40.5 KiB (0%)
Language: Arabic
Default: No
Forced: No

Text #4
ID: 6
Format: UTF-8
Codec ID: S_TEXT/UTF8
Codec ID/Info: UTF-8 Plain Text
Duration: 43 min 28 s
Bit rate: 121 b/s
Frame rate: 0.264 FPS
Count of elements: 690
Stream size: 38.6 KiB (0%)
Language: Bulgarian
Default: No
Forced: No

Text #5
ID: 7
Format: UTF-8
Codec ID: S_TEXT/UTF8
Codec ID/Info: UTF-8 Plain Text
Duration: 43 min 28 s
Bit rate: 78 b/s
Frame rate: 0.312 FPS
Count of elements: 814
Stream size: 25.0 KiB (0%)
Title: Chinese (Simplified)
Language: Mandarin (Hans)
Default: No
Forced: No

Text #6
ID: 8
Format: UTF-8
Codec ID: S_TEXT/UTF8
Codec ID/Info: UTF-8 Plain Text
Duration: 43 min 28 s
Bit rate: 82 b/s
Frame rate: 0.312 FPS
Count of elements: 815
Stream size: 26.3 KiB (0%)
Title: Chinese (Traditional)
Language: Mandarin (Hant)
Default: No
Forced: No

Text #7
ID: 9
Format: UTF-8
Codec ID: S_TEXT/UTF8
Codec ID/Info: UTF-8 Plain Text
Duration: 43 min 28 s
Bit rate: 76 b/s
Frame rate: 0.281 FPS
Count of elements: 733
Stream size: 24.2 KiB (0%)
Language: Czech
Default: No
Forced: No

Text #8
ID: 10
Format: UTF-8
Codec ID: S_TEXT/UTF8
Codec ID/Info: UTF-8 Plain Text
Duration: 43 min 28 s
Bit rate: 81 b/s
Frame rate: 0.259 FPS
Count of elements: 675
Stream size: 26.0 KiB (0%)
Language: Danish
Default: No
Forced: No

Text #9
ID: 11
Format: UTF-8
Codec ID: S_TEXT/UTF8
Codec ID/Info: UTF-8 Plain Text
Duration: 43 min 30 s
Bit rate: 78 b/s
Frame rate: 0.288 FPS
Count of elements: 752
Stream size: 25.0 KiB (0%)
Language: German
Default: No
Forced: No

Text #10
ID: 12
Format: UTF-8
Codec ID: S_TEXT/UTF8
Codec ID/Info: UTF-8 Plain Text
Duration: 43 min 28 s
Bit rate: 140 b/s
Frame rate: 0.294 FPS
Count of elements: 767
Stream size: 44.9 KiB (0%)
Language: Greek
Default: No
Forced: No

Text #11
ID: 13
Format: UTF-8
Codec ID: S_TEXT/UTF8
Codec ID/Info: UTF-8 Plain Text
Duration: 43 min 28 s
Bit rate: 85 b/s
Frame rate: 0.315 FPS
Count of elements: 822
Stream size: 27.1 KiB (0%)
Title: Spanish (Latin America)
Language: Spanish (Latin America)
Default: No
Forced: No

Text #12
ID: 14
Format: UTF-8
Codec ID: S_TEXT/UTF8
Codec ID/Info: UTF-8 Plain Text
Duration: 43 min 28 s
Bit rate: 81 b/s
Frame rate: 0.287 FPS
Count of elements: 748
Stream size: 26.1 KiB (0%)
Title: Spanish (Spain)
Language: Spanish (ES)
Default: No
Forced: No

Text #13
ID: 15
Format: UTF-8
Codec ID: S_TEXT/UTF8
Codec ID/Info: UTF-8 Plain Text
Duration: 43 min 28 s
Bit rate: 78 b/s
Frame rate: 0.276 FPS
Count of elements: 721
Stream size: 25.1 KiB (0%)
Language: Estonian
Default: No
Forced: No

Text #14
ID: 16
Format: UTF-8
Codec ID: S_TEXT/UTF8
Codec ID/Info: UTF-8 Plain Text
Duration: 43 min 28 s
Bit rate: 78 b/s
Frame rate: 0.280 FPS
Count of elements: 731
Stream size: 25.1 KiB (0%)
Language: Finnish
Default: No
Forced: No

Text #15
ID: 17
Format: UTF-8
Codec ID: S_TEXT/UTF8
Codec ID/Info: UTF-8 Plain Text
Duration: 43 min 1 s
Bit rate: 75 b/s
Frame rate: 0.311 FPS
Count of elements: 803
Stream size: 23.9 KiB (0%)
Title: French (Canada)
Language: French (CA)
Default: No
Forced: No

Text #16
ID: 18
Format: UTF-8
Codec ID: S_TEXT/UTF8
Codec ID/Info: UTF-8 Plain Text
Duration: 43 min 1 s
Bit rate: 75 b/s
Frame rate: 0.311 FPS
Count of elements: 803
Stream size: 23.9 KiB (0%)
Title: French (France)
Language: French (FR)
Default: No
Forced: No

Text #17
ID: 19
Format: UTF-8
Codec ID: S_TEXT/UTF8
Codec ID/Info: UTF-8 Plain Text
Duration: 43 min 28 s
Bit rate: 121 b/s
Frame rate: 0.312 FPS
Count of elements: 814
Stream size: 38.6 KiB (0%)
Language: Hebrew
Default: No
Forced: No

Text #18
ID: 20
Format: UTF-8
Codec ID: S_TEXT/UTF8
Codec ID/Info: UTF-8 Plain Text
Duration: 43 min 28 s
Bit rate: 227 b/s
Frame rate: 0.312 FPS
Count of elements: 815
Stream size: 72.4 KiB (0%)
Language: Hindi
Default: No
Forced: No

Text #19
ID: 21
Format: UTF-8
Codec ID: S_TEXT/UTF8
Codec ID/Info: UTF-8 Plain Text
Duration: 43 min 28 s
Bit rate: 82 b/s
Frame rate: 0.306 FPS
Count of elements: 799
Stream size: 26.4 KiB (0%)
Language: Hungarian
Default: No
Forced: No

Text #20
ID: 22
Format: UTF-8
Codec ID: S_TEXT/UTF8
Codec ID/Info: UTF-8 Plain Text
Duration: 43 min 28 s
Bit rate: 89 b/s
Frame rate: 0.311 FPS
Count of elements: 811
Stream size: 28.5 KiB (0%)
Language: Indonesian
Default: No
Forced: No

Text #21
ID: 23
Format: UTF-8
Codec ID: S_TEXT/UTF8
Codec ID/Info: UTF-8 Plain Text
Duration: 43 min 12 s
Bit rate: 88 b/s
Frame rate: 0.299 FPS
Count of elements: 776
Stream size: 28.0 KiB (0%)
Language: Italian
Default: No
Forced: No

Text #22
ID: 24
Format: UTF-8
Codec ID: S_TEXT/UTF8
Codec ID/Info: UTF-8 Plain Text
Duration: 43 min 34 s
Bit rate: 66 b/s
Frame rate: 0.293 FPS
Count of elements: 767
Stream size: 21.4 KiB (0%)
Language: Japanese
Default: No
Forced: No

Text #23
ID: 25
Format: UTF-8
Codec ID: S_TEXT/UTF8
Codec ID/Info: UTF-8 Plain Text
Duration: 43 min 28 s
Bit rate: 86 b/s
Frame rate: 0.312 FPS
Count of elements: 814
Stream size: 27.5 KiB (0%)
Language: Korean
Default: No
Forced: No

Text #24
ID: 26
Format: UTF-8
Codec ID: S_TEXT/UTF8
Codec ID/Info: UTF-8 Plain Text
Duration: 43 min 28 s
Bit rate: 88 b/s
Frame rate: 0.308 FPS
Count of elements: 803
Stream size: 28.3 KiB (0%)
Language: Lithuanian
Default: No
Forced: No

Text #25
ID: 27
Format: UTF-8
Codec ID: S_TEXT/UTF8
Codec ID/Info: UTF-8 Plain Text
Duration: 43 min 28 s
Bit rate: 84 b/s
Frame rate: 0.299 FPS
Count of elements: 779
Stream size: 26.9 KiB (0%)
Language: Latvian
Default: No
Forced: No

Text #26
ID: 28
Format: UTF-8
Codec ID: S_TEXT/UTF8
Codec ID/Info: UTF-8 Plain Text
Duration: 43 min 28 s
Bit rate: 90 b/s
Frame rate: 0.311 FPS
Count of elements: 811
Stream size: 28.7 KiB (0%)
Language: Malay
Default: No
Forced: No

Text #27
ID: 29
Format: UTF-8
Codec ID: S_TEXT/UTF8
Codec ID/Info: UTF-8 Plain Text
Duration: 43 min 28 s
Bit rate: 68 b/s
Frame rate: 0.227 FPS
Count of elements: 592
Stream size: 21.9 KiB (0%)
Language: Dutch
Default: No
Forced: No

Text #28
ID: 30
Format: UTF-8
Codec ID: S_TEXT/UTF8
Codec ID/Info: UTF-8 Plain Text
Duration: 43 min 28 s
Bit rate: 78 b/s
Frame rate: 0.245 FPS
Count of elements: 639
Stream size: 25.1 KiB (0%)
Language: Norwegian
Default: No
Forced: No

Text #29
ID: 31
Format: UTF-8
Codec ID: S_TEXT/UTF8
Codec ID/Info: UTF-8 Plain Text
Duration: 43 min 28 s
Bit rate: 76 b/s
Frame rate: 0.289 FPS
Count of elements: 754
Stream size: 24.2 KiB (0%)
Language: Polish
Default: No
Forced: No

Text #30
ID: 32
Format: UTF-8
Codec ID: S_TEXT/UTF8
Codec ID/Info: UTF-8 Plain Text
Duration: 43 min 28 s
Bit rate: 80 b/s
Frame rate: 0.301 FPS
Count of elements: 786
Stream size: 25.8 KiB (0%)
Title: Portuguese
Language: Portuguese
Default: No
Forced: No

Text #31
ID: 33
Format: UTF-8
Codec ID: S_TEXT/UTF8
Codec ID/Info: UTF-8 Plain Text
Duration: 43 min 28 s
Bit rate: 77 b/s
Frame rate: 0.294 FPS
Count of elements: 766
Stream size: 24.5 KiB (0%)
Title: Portuguese (Brazil)
Language: Portuguese (BR)
Default: No
Forced: No

Text #32
ID: 34
Format: UTF-8
Codec ID: S_TEXT/UTF8
Codec ID/Info: UTF-8 Plain Text
Duration: 43 min 28 s
Bit rate: 140 b/s
Frame rate: 0.312 FPS
Count of elements: 815
Stream size: 44.7 KiB (0%)
Language: Russian
Default: No
Forced: No

Text #33
ID: 35
Format: UTF-8
Codec ID: S_TEXT/UTF8
Codec ID/Info: UTF-8 Plain Text
Duration: 43 min 28 s
Bit rate: 77 b/s
Frame rate: 0.308 FPS
Count of elements: 804
Stream size: 24.7 KiB (0%)
Language: Slovak
Default: No
Forced: No

Text #34
ID: 36
Format: UTF-8
Codec ID: S_TEXT/UTF8
Codec ID/Info: UTF-8 Plain Text
Duration: 43 min 28 s
Bit rate: 70 b/s
Frame rate: 0.270 FPS
Count of elements: 704
Stream size: 22.4 KiB (0%)
Language: Slovenian
Default: No
Forced: No

Text #35
ID: 37
Format: UTF-8
Codec ID: S_TEXT/UTF8
Codec ID/Info: UTF-8 Plain Text
Duration: 43 min 28 s
Bit rate: 85 b/s
Frame rate: 0.274 FPS
Count of elements: 715
Stream size: 27.4 KiB (0%)
Language: Swedish
Default: No
Forced: No

Text #36
ID: 38
Format: UTF-8
Codec ID: S_TEXT/UTF8
Codec ID/Info: UTF-8 Plain Text
Duration: 43 min 28 s
Bit rate: 276 b/s
Frame rate: 0.312 FPS
Count of elements: 814
Stream size: 88.2 KiB (0%)
Language: Tamil
Default: No
Forced: No

Text #37
ID: 39
Format: UTF-8
Codec ID: S_TEXT/UTF8
Codec ID/Info: UTF-8 Plain Text
Duration: 43 min 28 s
Bit rate: 226 b/s
Frame rate: 0.312 FPS
Count of elements: 814
Stream size: 72.2 KiB (0%)
Language: Telugu
Default: No
Forced: No

Text #38
ID: 40
Format: UTF-8
Codec ID: S_TEXT/UTF8
Codec ID/Info: UTF-8 Plain Text
Duration: 43 min 28 s
Bit rate: 186 b/s
Frame rate: 0.312 FPS
Count of elements: 814
Stream size: 59.4 KiB (0%)
Language: Thai
Default: No
Forced: No

Text #39
ID: 41
Format: UTF-8
Codec ID: S_TEXT/UTF8
Codec ID/Info: UTF-8 Plain Text
Duration: 43 min 28 s
Bit rate: 85 b/s
Frame rate: 0.309 FPS
Count of elements: 807
Stream size: 27.2 KiB (0%)
Language: Turkish
Default: No
Forced: No

Text #40
ID: 42
Format: UTF-8
Codec ID: S_TEXT/UTF8
Codec ID/Info: UTF-8 Plain Text
Duration: 43 min 28 s
Bit rate: 130 b/s
Frame rate: 0.312 FPS
Count of elements: 815
Stream size: 41.5 KiB (0%)
Language: Ukrainian
Default: No
Forced: No

Text #41
ID: 43
Format: UTF-8
Codec ID: S_TEXT/UTF8
Codec ID/Info: UTF-8 Plain Text
Duration: 43 min 28 s
Bit rate: 111 b/s
Frame rate: 0.311 FPS
Count of elements: 811
Stream size: 35.4 KiB (0%)
Language: Vietnamese
Default: No
Forced: No

Text #42
ID: 44
Format: UTF-8
Codec ID: S_TEXT/UTF8
Codec ID/Info: UTF-8 Plain Text
Duration: 43 min 28 s
Bit rate: 76 b/s
Frame rate: 0.312 FPS
Count of elements: 815
Stream size: 24.4 KiB (0%)
Title: Cantonese (Traditional)
Language: Cantonese (Hant)
Default: No
Forced: No
ssl  EZTV RSS EZTV Status | EZTV API | DMCA: [email protected]