eztv.yt | eztvstatus.org
Search title:  
TV Packs only
 

Sesame Street S53E17 1080p WEBRip AAC2 0 H265-NTb EZTV

Episode Breakdown
Sesame Street
Sesame Street TV Show S53E17

Season: 53
Episode: 17
Download Links
     Torrent Download     Magnet Download
     Anonymous Download
Added 1 year ago by eztv (verified).
Tracker Statistics
Seeds: 6
Peers: 0
Stats generated @ 19:22 on 15th Jun 2024
Torrent Info
Torrent File: Sesame.Street.S53E17.1080p.WEBRip.AAC2.0.H.265-NTb[eztv.re].mkv
Torrent Hash: 5A2AF7A5C70AA63202C364877E63D54D3EB60864
Filesize: 634 MB
Released: 17th Mar 2023

File Format: MKV (Matroska)
Resolution: 1920x1080 px
Aspect Ratio: 16:9
Alternate Releases S L
Sesame Street S53E17 720p WEBRip AAC2 0 H264-NTb 0 2

Episode Description
Sesame Street S53E17 1080p WEBRip AAC2 0 H265-NTb EZTV
Sesame Street S53E17 Screenshot
General
Unique ID: 140849841611419552818469363973372326470 (0x69F6B158DC72F3CA0840FA8368C13246)
Complete name: Sesame.Street.S53E17.1080p.WEBRip.AAC2.0.H.265-NTb.mkv
Format: Matroska
Format version: Version 4
File size: 634 MiB
Duration: 26 min 4 s
Overall bit rate: 3 397 kb/s
Encoded date: UTC 2023-03-17 21:57:43
Writing application: mkvmerge v65.0.0 ('Too Much') 64-bit
Writing library: libebml v1.4.2 + libmatroska v1.6.4

Video
ID: 1
Format: HEVC
Format/Info: High Efficiency Video Coding
Format profile: [email protected]@Main
Codec ID: V_MPEGH/ISO/HEVC
Duration: 26 min 4 s
Bit rate: 3 199 kb/s
Width: 1 920 pixels
Height: 1 080 pixels
Display aspect ratio: 16:9
Frame rate mode: Variable
Frame rate: 29.911 FPS
Original frame rate: 29.970 (30000/1001) FPS
Standard: Component
Color space: YUV
Chroma subsampling: 4:2:0
Bit depth: 8 bits
Bits/(Pixel*Frame): 0.052
Stream size: 597 MiB (94%)
Default: Yes
Forced: No
Color range: Limited

Audio
ID: 2
Format: AAC LC
Format/Info: Advanced Audio Codec Low Complexity
Codec ID: A_AAC-2
Duration: 26 min 4 s
Bit rate: 192 kb/s
Channel(s): 2 channels
Channel layout: L R
Sampling rate: 44.1 kHz
Frame rate: 43.066 FPS (1024 SPF)
Compression mode: Lossy
Delay relative to video: -12 ms
Stream size: 36.0 MiB (6%)
Language: English
Default: Yes
Forced: No

Text
ID: 3
Format: UTF-8
Codec ID: S_TEXT/UTF8
Codec ID/Info: UTF-8 Plain Text
Duration: 25 min 50 s
Bit rate: 116 b/s
Frame rate: 0.442 FPS
Count of elements: 685
Stream size: 22.0 KiB (0%)
Language: English
Default: Yes
Forced: No
ssl  EZTV RSS EZTV Status | EZTV API | DMCA: [email protected]