eztv.yt | eztvstatus.org
Search title:  
TV Packs only
 

Superman and Lois S03E09 The Dress 1080p AMZN WEBRip DDP5 1 x264-NTb EZTV

Episode Breakdown
Superman and Lois
Superman and Lois TV Show S03E09

Season: 3
Episode: 9
Air Date: 23 May, 2023
Download Links
     Torrent Download     Magnet Download
     Anonymous Download
Added 1 year ago by eztv (verified).
Tracker Statistics
Seeds: 11
Peers: 0
Stats generated @ 07:19 on 21st Jul 2024
Torrent Info
Torrent File: Superman.and.Lois.S03E09.The.Dress.1080p.AMZN.WEB-DL.DDP5.1.H.264-NTb[eztv.re].mkv
Torrent Hash: A16600F2CF10E416EEBA1582A434772CA4E34EEA
Filesize: 1.69 GB
Released: 24th May 2023

File Format: MKV (Matroska)
Resolution: 1920x1080 px
Aspect Ratio: 16:9
Alternate Releases S L
Superman and Lois S03E09 480p x264-mSD 0 0
Superman and Lois S03E09 720p HDTV x265-MiNX 4 2
Superman and Lois S03E09 720p HEVC x265-MeGusta 7 3
Superman and Lois S03E09 XviD-AFG 10 0
Superman And Lois S03E09 720p WEB h264-ELEANOR 6 2
Superman And Lois S03E09 1080p WEB h264-ELEANOR 8 2
Superman And Lois S03E09 1080p HEVC x265-MeGusta 5 5

Superman and Lois S03E09 - The Dress

Summary:

Superman and John Henry clash over how to handle Bruno Mannheim, while Lois worries over upcoming treatments and confides in Lana about her early courtship with Clark. Meanwhile, Jonathan, Jordan, and Sarah work together to help Natalie deal with the aftermath of meeting Matteo's family.



Superman and Lois S03E09 The Dress 1080p AMZN WEBRip DDP5 1 x264-NTb EZTV
Superman and Lois S3E9 Screenshot


General
Unique ID: 175810500531013309871730817044317117694 (0x8443DEE98A41FCA9D5F79CCE73AE9CFE)
Complete name: Superman.and.Lois.S03E09.The.Dress.1080p.AMZN.WEB-DL.DDP5.1.H.264-NTb.mkv
Format: Matroska
Format version: Version 4
File size: 1.69 GiB
Duration: 41 min 45 s
Overall bit rate: 5 790 kb/s
Writing application: mkvmerge v76.0 ('Celebration') 64-bit
Writing library: libebml v1.4.4 + libmatroska v1.7.1

Video
ID: 1
Format: AVC
Format/Info: Advanced Video Codec
Format profile: High@L4
Format settings: CABAC / 4 Ref Frames
Format settings, CABAC: Yes
Format settings, Reference frames: 4 frames
Codec ID: V_MPEG4/ISO/AVC
Duration: 41 min 45 s
Bit rate mode: Constant
Bit rate: 5 148 kb/s
Nominal bit rate: 10 000 kb/s
Width: 1 920 pixels
Height: 872 pixels
Display aspect ratio: 2.2:1
Frame rate mode: Constant
Frame rate: 23.976 (24000/1001) FPS
Color space: YUV
Chroma subsampling: 4:2:0
Bit depth: 8 bits
Scan type: Progressive
Bits/(Pixel*Frame): 0.128
Stream size: 1.50 GiB (89%)
Default: Yes
Forced: No
Color range: Limited
Color primaries: BT.709
Transfer characteristics: BT.709
Matrix coefficients: BT.709

Audio
ID: 2
Format: E-AC-3
Format/Info: Enhanced AC-3
Commercial name: Dolby Digital Plus
Codec ID: A_EAC3
Duration: 41 min 45 s
Bit rate mode: Constant
Bit rate: 640 kb/s
Channel(s): 6 channels
Channel layout: L R C LFE Ls Rs
Sampling rate: 48.0 kHz
Frame rate: 31.250 FPS (1536 SPF)
Compression mode: Lossy
Stream size: 191 MiB (11%)
Language: English (US)
Service kind: Complete Main
Default: Yes
Forced: No

Text #1
ID: 3
Format: UTF-8
Codec ID: S_TEXT/UTF8
Codec ID/Info: UTF-8 Plain Text
Duration: 41 min 40 s
Bit rate: 71 b/s
Frame rate: 0.277 FPS
Count of elements: 692
Stream size: 22.0 KiB (0%)
Language: English (US)
Default: No
Forced: No

Text #2
ID: 4
Format: UTF-8
Codec ID: S_TEXT/UTF8
Codec ID/Info: UTF-8 Plain Text
Duration: 41 min 40 s
Bit rate: 80 b/s
Frame rate: 0.334 FPS
Count of elements: 834
Stream size: 24.7 KiB (0%)
Title: SDH
Language: English (US)
Default: No
Forced: No
ssl  EZTV RSS EZTV Status | EZTV API | DMCA: [email protected]