eztv.yt | eztvstatus.org
Search title:  
TV Packs only
 

Ted Lasso S03E11 Mom City 1080p ATVP WEBRip DDP5 1 x264-NTb EZTV

Episode Breakdown
Ted Lasso
Ted Lasso TV Show S03E11

Season: 3
Episode: 11
Air Date: 24 May, 2023
Download Links
     Torrent Download     Magnet Download
     Anonymous Download
Added 1 year ago by eztv (verified).
Tracker Statistics
Seeds: 6
Peers: 0
Stats generated @ 14:09 on 18th Jun 2024
Torrent Info
Torrent File: Ted.Lasso.S03E11.Mom.City.1080p.ATVP.WEB-DL.DDP5.1.H.264-NTb[eztv.re].mkv
Torrent Hash: 7D1377277A5170435363ADE49BF417EC10CD21B5
Filesize: 5.26 GB
Released: 24th May 2023

File Format: MKV (Matroska)
Resolution: 1920x1080 px
Aspect Ratio: 16:9
Alternate Releases S L
Ted Lasso S03E11 720p WEB H264-CAKES 13 0
Ted Lasso S03E11 1080p WEB H264-CAKES 11 0
Ted Lasso S03E11 480p x264-mSD 1 0
Ted Lasso S03E11 720p HEVC x265-MeGusta 7 3
Ted Lasso S03E11 XviD-AFG 3 0
Ted Lasso S03E11 1080p HEVC x265-MeGusta 82 8
Ted Lasso S03E11 MULTI 1080p WEB H264-HiggsBoson 0 1

Ted Lasso S03E11 - Mom City

Summary:

An unexpected guest has Ted on edge. When Richmond travel to Manchester for a big match, Roy and Keeley become concerned about Jamie.



Ted Lasso S03E11 Mom City 1080p ATVP WEBRip DDP5 1 x264-NTb EZTV
Ted Lasso S3E11 Screenshot


General
Unique ID: 144232068904476283007546490476156834579 (0x6C82160701932FE0EC4AAC0B9B125313)
Complete name: Ted.Lasso.S03E11.Mom.City.1080p.ATVP.WEB-DL.DDP5.1.H.264-NTb.mkv
Format: Matroska
Format version: Version 4
File size: 5.26 GiB
Duration: 1 h 9 min
Overall bit rate: 10.8 Mb/s
Writing application: mkvmerge v74.0.0 ('You Oughta Know') 64-bit
Writing library: libebml v1.4.4 + libmatroska v1.7.1

Video
ID: 1
Format: AVC
Format/Info: Advanced Video Codec
Format profile: High@L4
Format settings: CABAC / 4 Ref Frames
Format settings, CABAC: Yes
Format settings, Reference frames: 4 frames
Codec ID: V_MPEG4/ISO/AVC
Duration: 1 h 9 min
Bit rate: 10.1 Mb/s
Width: 1 920 pixels
Height: 960 pixels
Display aspect ratio: 2.000
Frame rate mode: Constant
Frame rate: 23.976 (24000/1001) FPS
Color space: YUV
Chroma subsampling: 4:2:0
Bit depth: 8 bits
Scan type: Progressive
Bits/(Pixel*Frame): 0.228
Stream size: 4.89 GiB (93%)
Default: Yes
Forced: No
Color range: Limited
Color primaries: BT.709
Transfer characteristics: BT.709
Matrix coefficients: BT.709

Audio
ID: 2
Format: E-AC-3 JOC
Format/Info: Enhanced AC-3 with Joint Object Coding
Commercial name: Dolby Digital Plus with Dolby Atmos
Codec ID: A_EAC3
Duration: 1 h 9 min
Bit rate mode: Constant
Bit rate: 768 kb/s
Channel(s): 6 channels
Channel layout: L R C LFE Ls Rs
Sampling rate: 48.0 kHz
Frame rate: 31.250 FPS (1536 SPF)
Compression mode: Lossy
Stream size: 382 MiB (7%)
Language: English
Service kind: Complete Main
Default: Yes
Forced: No
Complexity index: 16
Number of dynamic objects: 15
Bed channel count: 1 channel
Bed channel configuration: LFE

Text #1
ID: 3
Format: UTF-8
Codec ID: S_TEXT/UTF8
Codec ID/Info: UTF-8 Plain Text
Duration: 1 h 8 min
Bit rate: 80 b/s
Frame rate: 0.261 FPS
Count of elements: 1066
Stream size: 40.2 KiB (0%)
Language: English
Default: No
Forced: No

Text #2
ID: 4
Format: UTF-8
Codec ID: S_TEXT/UTF8
Codec ID/Info: UTF-8 Plain Text
Duration: 1 h 8 min
Bit rate: 94 b/s
Frame rate: 0.300 FPS
Count of elements: 1228
Stream size: 47.2 KiB (0%)
Title: SDH
Language: English
Default: No
Forced: No

Text #3
ID: 5
Format: UTF-8
Codec ID: S_TEXT/UTF8
Codec ID/Info: UTF-8 Plain Text
Duration: 1 h 9 min
Bit rate: 108 b/s
Frame rate: 0.262 FPS
Count of elements: 1089
Stream size: 54.8 KiB (0%)
Language: Arabic
Default: No
Forced: No

Text #4
ID: 6
Format: UTF-8
Codec ID: S_TEXT/UTF8
Codec ID/Info: UTF-8 Plain Text
Duration: 1 h 9 min
Bit rate: 103 b/s
Frame rate: 0.222 FPS
Count of elements: 923
Stream size: 52.4 KiB (0%)
Language: Bulgarian
Default: No
Forced: No

Text #5
ID: 7
Format: UTF-8
Codec ID: S_TEXT/UTF8
Codec ID/Info: UTF-8 Plain Text
Duration: 1 h 9 min
Bit rate: 65 b/s
Frame rate: 0.263 FPS
Count of elements: 1091
Stream size: 33.4 KiB (0%)
Title: Chinese (Simplified)
Language: Mandarin (Hans)
Default: No
Forced: No

Text #6
ID: 8
Format: UTF-8
Codec ID: S_TEXT/UTF8
Codec ID/Info: UTF-8 Plain Text
Duration: 1 h 9 min
Bit rate: 70 b/s
Frame rate: 0.263 FPS
Count of elements: 1094
Stream size: 35.5 KiB (0%)
Title: Chinese (Traditional)
Language: Mandarin (Hant)
Default: No
Forced: No

Text #7
ID: 9
Format: UTF-8
Codec ID: S_TEXT/UTF8
Codec ID/Info: UTF-8 Plain Text
Duration: 1 h 9 min
Bit rate: 67 b/s
Frame rate: 0.244 FPS
Count of elements: 1014
Stream size: 34.4 KiB (0%)
Language: Czech
Default: No
Forced: No

Text #8
ID: 10
Format: UTF-8
Codec ID: S_TEXT/UTF8
Codec ID/Info: UTF-8 Plain Text
Duration: 1 h 9 min
Bit rate: 72 b/s
Frame rate: 0.230 FPS
Count of elements: 955
Stream size: 36.8 KiB (0%)
Language: Danish
Default: No
Forced: No

Text #9
ID: 11
Format: UTF-8
Codec ID: S_TEXT/UTF8
Codec ID/Info: UTF-8 Plain Text
Duration: 1 h 8 min
Bit rate: 71 b/s
Frame rate: 0.263 FPS
Count of elements: 1081
Stream size: 36.0 KiB (0%)
Language: German
Default: No
Forced: No

Text #10
ID: 12
Format: UTF-8
Codec ID: S_TEXT/UTF8
Codec ID/Info: UTF-8 Plain Text
Duration: 1 h 9 min
Bit rate: 117 b/s
Frame rate: 0.256 FPS
Count of elements: 1064
Stream size: 59.7 KiB (0%)
Language: Greek
Default: No
Forced: No

Text #11
ID: 13
Format: UTF-8
Codec ID: S_TEXT/UTF8
Codec ID/Info: UTF-8 Plain Text
Duration: 1 h 9 min
Bit rate: 72 b/s
Frame rate: 0.259 FPS
Count of elements: 1077
Stream size: 36.8 KiB (0%)
Title: Spanish (Latin America)
Language: Spanish (Latin America)
Default: No
Forced: No

Text #12
ID: 14
Format: UTF-8
Codec ID: S_TEXT/UTF8
Codec ID/Info: UTF-8 Plain Text
Duration: 1 h 9 min
Bit rate: 74 b/s
Frame rate: 0.258 FPS
Count of elements: 1072
Stream size: 38.0 KiB (0%)
Title: Spanish (Spain)
Language: Spanish (ES)
Default: No
Forced: No

Text #13
ID: 15
Format: UTF-8
Codec ID: S_TEXT/UTF8
Codec ID/Info: UTF-8 Plain Text
Duration: 1 h 9 min
Bit rate: 69 b/s
Frame rate: 0.245 FPS
Count of elements: 1019
Stream size: 35.2 KiB (0%)
Language: Estonian
Default: No
Forced: No

Text #14
ID: 16
Format: UTF-8
Codec ID: S_TEXT/UTF8
Codec ID/Info: UTF-8 Plain Text
Duration: 1 h 9 min
Bit rate: 71 b/s
Frame rate: 0.248 FPS
Count of elements: 1031
Stream size: 36.2 KiB (0%)
Language: Finnish
Default: No
Forced: No

Text #15
ID: 17
Format: UTF-8
Codec ID: S_TEXT/UTF8
Codec ID/Info: UTF-8 Plain Text
Duration: 1 h 8 min
Bit rate: 68 b/s
Frame rate: 0.282 FPS
Count of elements: 1162
Stream size: 34.6 KiB (0%)
Title: French (Canada)
Language: French (CA)
Default: No
Forced: No

Text #16
ID: 18
Format: UTF-8
Codec ID: S_TEXT/UTF8
Codec ID/Info: UTF-8 Plain Text
Duration: 1 h 8 min
Bit rate: 68 b/s
Frame rate: 0.282 FPS
Count of elements: 1162
Stream size: 34.6 KiB (0%)
Title: French (France)
Language: French (FR)
Default: No
Forced: No

Text #17
ID: 19
Format: UTF-8
Codec ID: S_TEXT/UTF8
Codec ID/Info: UTF-8 Plain Text
Duration: 1 h 9 min
Bit rate: 104 b/s
Frame rate: 0.263 FPS
Count of elements: 1093
Stream size: 52.9 KiB (0%)
Language: Hebrew
Default: No
Forced: No

Text #18
ID: 20
Format: UTF-8
Codec ID: S_TEXT/UTF8
Codec ID/Info: UTF-8 Plain Text
Duration: 1 h 9 min
Bit rate: 192 b/s
Frame rate: 0.264 FPS
Count of elements: 1096
Stream size: 97.6 KiB (0%)
Language: Hindi
Default: No
Forced: No

Text #19
ID: 21
Format: UTF-8
Codec ID: S_TEXT/UTF8
Codec ID/Info: UTF-8 Plain Text
Duration: 1 h 9 min
Bit rate: 71 b/s
Frame rate: 0.259 FPS
Count of elements: 1077
Stream size: 36.4 KiB (0%)
Language: Hungarian
Default: No
Forced: No

Text #20
ID: 22
Format: UTF-8
Codec ID: S_TEXT/UTF8
Codec ID/Info: UTF-8 Plain Text
Duration: 1 h 9 min
Bit rate: 78 b/s
Frame rate: 0.261 FPS
Count of elements: 1083
Stream size: 39.6 KiB (0%)
Language: Indonesian
Default: No
Forced: No

Text #21
ID: 23
Format: UTF-8
Codec ID: S_TEXT/UTF8
Codec ID/Info: UTF-8 Plain Text
Duration: 1 h 8 min
Bit rate: 74 b/s
Frame rate: 0.254 FPS
Count of elements: 1048
Stream size: 37.8 KiB (0%)
Language: Italian
Default: No
Forced: No

Text #22
ID: 24
Format: UTF-8
Codec ID: S_TEXT/UTF8
Codec ID/Info: UTF-8 Plain Text
Duration: 1 h 9 min
Bit rate: 60 b/s
Frame rate: 0.273 FPS
Count of elements: 1137
Stream size: 30.9 KiB (0%)
Language: Japanese
Default: No
Forced: No

Text #23
ID: 25
Format: UTF-8
Codec ID: S_TEXT/UTF8
Codec ID/Info: UTF-8 Plain Text
Duration: 1 h 9 min
Bit rate: 76 b/s
Frame rate: 0.262 FPS
Count of elements: 1090
Stream size: 38.6 KiB (0%)
Language: Korean
Default: No
Forced: No

Text #24
ID: 26
Format: UTF-8
Codec ID: S_TEXT/UTF8
Codec ID/Info: UTF-8 Plain Text
Duration: 1 h 9 min
Bit rate: 77 b/s
Frame rate: 0.257 FPS
Count of elements: 1069
Stream size: 39.5 KiB (0%)
Language: Lithuanian
Default: No
Forced: No

Text #25
ID: 27
Format: UTF-8
Codec ID: S_TEXT/UTF8
Codec ID/Info: UTF-8 Plain Text
Duration: 1 h 9 min
Bit rate: 76 b/s
Frame rate: 0.254 FPS
Count of elements: 1053
Stream size: 38.8 KiB (0%)
Language: Latvian
Default: No
Forced: No

Text #26
ID: 28
Format: UTF-8
Codec ID: S_TEXT/UTF8
Codec ID/Info: UTF-8 Plain Text
Duration: 1 h 9 min
Bit rate: 78 b/s
Frame rate: 0.261 FPS
Count of elements: 1083
Stream size: 39.7 KiB (0%)
Language: Malay
Default: No
Forced: No

Text #27
ID: 29
Format: UTF-8
Codec ID: S_TEXT/UTF8
Codec ID/Info: UTF-8 Plain Text
Duration: 1 h 9 min
Bit rate: 60 b/s
Frame rate: 0.198 FPS
Count of elements: 822
Stream size: 30.6 KiB (0%)
Language: Dutch
Default: No
Forced: No

Text #28
ID: 30
Format: UTF-8
Codec ID: S_TEXT/UTF8
Codec ID/Info: UTF-8 Plain Text
Duration: 1 h 9 min
Bit rate: 71 b/s
Frame rate: 0.213 FPS
Count of elements: 885
Stream size: 36.2 KiB (0%)
Language: Norwegian
Default: No
Forced: No

Text #29
ID: 31
Format: UTF-8
Codec ID: S_TEXT/UTF8
Codec ID/Info: UTF-8 Plain Text
Duration: 1 h 9 min
Bit rate: 67 b/s
Frame rate: 0.241 FPS
Count of elements: 1000
Stream size: 34.3 KiB (0%)
Language: Polish
Default: No
Forced: No

Text #30
ID: 32
Format: UTF-8
Codec ID: S_TEXT/UTF8
Codec ID/Info: UTF-8 Plain Text
Duration: 1 h 9 min
Bit rate: 72 b/s
Frame rate: 0.257 FPS
Count of elements: 1068
Stream size: 36.7 KiB (0%)
Title: Portuguese
Language: Portuguese
Default: No
Forced: No

Text #31
ID: 33
Format: UTF-8
Codec ID: S_TEXT/UTF8
Codec ID/Info: UTF-8 Plain Text
Duration: 1 h 9 min
Bit rate: 68 b/s
Frame rate: 0.252 FPS
Count of elements: 1045
Stream size: 34.6 KiB (0%)
Title: Portuguese (Brazil)
Language: Portuguese (BR)
Default: No
Forced: No

Text #32
ID: 34
Format: UTF-8
Codec ID: S_TEXT/UTF8
Codec ID/Info: UTF-8 Plain Text
Duration: 1 h 9 min
Bit rate: 119 b/s
Frame rate: 0.263 FPS
Count of elements: 1091
Stream size: 60.6 KiB (0%)
Language: Russian
Default: No
Forced: No

Text #33
ID: 35
Format: UTF-8
Codec ID: S_TEXT/UTF8
Codec ID/Info: UTF-8 Plain Text
Duration: 1 h 9 min
Bit rate: 67 b/s
Frame rate: 0.260 FPS
Count of elements: 1079
Stream size: 34.3 KiB (0%)
Language: Slovak
Default: No
Forced: No

Text #34
ID: 36
Format: UTF-8
Codec ID: S_TEXT/UTF8
Codec ID/Info: UTF-8 Plain Text
Duration: 1 h 9 min
Bit rate: 62 b/s
Frame rate: 0.226 FPS
Count of elements: 938
Stream size: 31.8 KiB (0%)
Language: Slovenian
Default: No
Forced: No

Text #35
ID: 37
Format: UTF-8
Codec ID: S_TEXT/UTF8
Codec ID/Info: UTF-8 Plain Text
Duration: 1 h 9 min
Bit rate: 77 b/s
Frame rate: 0.243 FPS
Count of elements: 1010
Stream size: 39.1 KiB (0%)
Language: Swedish
Default: No
Forced: No

Text #36
ID: 38
Format: UTF-8
Codec ID: S_TEXT/UTF8
Codec ID/Info: UTF-8 Plain Text
Duration: 1 h 9 min
Bit rate: 227 b/s
Frame rate: 0.263 FPS
Count of elements: 1093
Stream size: 116 KiB (0%)
Language: Tamil
Default: No
Forced: No

Text #37
ID: 39
Format: UTF-8
Codec ID: S_TEXT/UTF8
Codec ID/Info: UTF-8 Plain Text
Duration: 1 h 9 min
Bit rate: 190 b/s
Frame rate: 0.263 FPS
Count of elements: 1094
Stream size: 96.7 KiB (0%)
Language: Telugu
Default: No
Forced: No

Text #38
ID: 40
Format: UTF-8
Codec ID: S_TEXT/UTF8
Codec ID/Info: UTF-8 Plain Text
Duration: 1 h 9 min
Bit rate: 157 b/s
Frame rate: 0.263 FPS
Count of elements: 1092
Stream size: 80.0 KiB (0%)
Language: Thai
Default: No
Forced: No

Text #39
ID: 41
Format: UTF-8
Codec ID: S_TEXT/UTF8
Codec ID/Info: UTF-8 Plain Text
Duration: 1 h 9 min
Bit rate: 74 b/s
Frame rate: 0.259 FPS
Count of elements: 1074
Stream size: 38.0 KiB (0%)
Language: Turkish
Default: No
Forced: No

Text #40
ID: 42
Format: UTF-8
Codec ID: S_TEXT/UTF8
Codec ID/Info: UTF-8 Plain Text
Duration: 1 h 9 min
Bit rate: 113 b/s
Frame rate: 0.263 FPS
Count of elements: 1093
Stream size: 57.6 KiB (0%)
Language: Ukrainian
Default: No
Forced: No

Text #41
ID: 43
Format: UTF-8
Codec ID: S_TEXT/UTF8
Codec ID/Info: UTF-8 Plain Text
Duration: 1 h 9 min
Bit rate: 96 b/s
Frame rate: 0.262 FPS
Count of elements: 1088
Stream size: 49.1 KiB (0%)
Language: Vietnamese
Default: No
Forced: No

Text #42
ID: 44
Format: UTF-8
Codec ID: S_TEXT/UTF8
Codec ID/Info: UTF-8 Plain Text
Duration: 1 h 9 min
Bit rate: 65 b/s
Frame rate: 0.264 FPS
Count of elements: 1095
Stream size: 33.0 KiB (0%)
Title: Cantonese (Traditional)
Language: Cantonese (Hant)
Default: No
Forced: No

Menu
00:00:00.000: en:Chapter 1
00:00:59.124: en:Intro
00:01:21.125: en:Chapter 2
ssl  EZTV RSS EZTV Status | EZTV API | DMCA: [email protected]