eztv.yt | eztvstatus.org
Search title:  
TV Packs only
 

Amazing Dogs S01E03 Asia and Africa 1080p AMZN WEB-DL DDP2 0 H 264-NTb EZTV

Episode Breakdown
Amazing Dogs
Amazing Dogs TV Show S01E03

Season: 1
Episode: 3
Download Links
     Torrent Download     Magnet Download
     Anonymous Download
Added 1 year ago by eztv (verified).
Tracker Statistics
Seeds: 0
Peers: 2
Stats generated @ 06:18 on 19th Jun 2024
Torrent Info
Torrent File: Amazing.Dogs.S01E03.Asia.and.Africa.1080p.AMZN.WEB-DL.DDP2.0.H.264-NTb[eztv.re].mkv
Torrent Hash: C09D0CB288852C43DB3C7EE0543F1015470B4ACE
Filesize: 3.06 GB
Released: 13th Jun 2023

File Format: MKV (Matroska)
Resolution: 1920x1080 px
Aspect Ratio: 16:9
Alternate Releases S L
Amazing Dogs S01E03 Africa 720p WEBRip x264-CAFFEiNE 0 0
Amazing Dogs S01E03 Africa WEBRip x264-CAFFEiNE 0 1
Amazing Dogs S01E03 Africa 480p x264-mSD 0 0
Amazing Dogs S01E03 1080p WEB h264-DiRT 0 0

Episode Description
Amazing Dogs S01E03 Asia and Africa 1080p AMZN WEB-DL DDP2 0 H 264-NTb EZTV
Amazing Dogs S1E3 Screenshot


General
Unique ID: 239870081930225849076563990082859680624 (0xB4754C1F787D271F1C4B61B29501C370)
Complete name: Amazing.Dogs.S01E03.Asia.and.Africa.1080p.AMZN.WEB-DL.DDP2.0.H.264-NTb.mkv
Format: Matroska
Format version: Version 4
File size: 3.06 GiB
Duration: 44 min 4 s
Overall bit rate: 9 949 kb/s
Writing application: mkvmerge v75.0.0 ('Goliath') 64-bit
Writing library: libebml v1.4.4 + libmatroska v1.7.1

Video
ID: 1
Format: AVC
Format/Info: Advanced Video Codec
Format profile: High@L4
Format settings: CABAC / 4 Ref Frames
Format settings, CABAC: Yes
Format settings, Reference frames: 4 frames
Codec ID: V_MPEG4/ISO/AVC
Duration: 44 min 4 s
Bit rate mode: Constant
Bit rate: 10 000 kb/s
Width: 1 920 pixels
Height: 1 080 pixels
Display aspect ratio: 16:9
Frame rate mode: Constant
Frame rate: 29.970 (30000/1001) FPS
Color space: YUV
Chroma subsampling: 4:2:0
Bit depth: 8 bits
Scan type: Progressive
Bits/(Pixel*Frame): 0.161
Stream size: 2.99 GiB (98%)
Default: Yes
Forced: No
Color range: Limited
Color primaries: BT.709
Transfer characteristics: BT.709
Matrix coefficients: BT.709

Audio
ID: 2
Format: E-AC-3
Format/Info: Enhanced AC-3
Commercial name: Dolby Digital Plus
Codec ID: A_EAC3
Duration: 44 min 4 s
Bit rate mode: Constant
Bit rate: 224 kb/s
Channel(s): 2 channels
Channel layout: L R
Sampling rate: 48.0 kHz
Frame rate: 31.250 FPS (1536 SPF)
Compression mode: Lossy
Stream size: 70.6 MiB (2%)
Language: English (CA)
Service kind: Complete Main
Default: Yes
Forced: No

Text #1
ID: 3
Format: UTF-8
Codec ID: S_TEXT/UTF8
Codec ID/Info: UTF-8 Plain Text
Duration: 43 min 28 s
Bit rate: 56 b/s
Frame rate: 0.190 FPS
Count of elements: 495
Stream size: 18.0 KiB (0%)
Language: English (US)
Default: No
Forced: No

Text #2
ID: 4
Format: UTF-8
Codec ID: S_TEXT/UTF8
Codec ID/Info: UTF-8 Plain Text
Duration: 43 min 59 s
Bit rate: 59 b/s
Frame rate: 0.240 FPS
Count of elements: 634
Stream size: 19.1 KiB (0%)
Title: SDH
Language: English (US)
Default: No
Forced: No
ssl  EZTV RSS EZTV Status | EZTV API | DMCA: [email protected]