eztv.yt | eztvstatus.org
Search title:  
TV Packs only
 

The Dead Files S15E02 Sudden Fury 1080p AMZN WEB-DL DDP2 0 H 264-NTb EZTV

Episode Breakdown
The Dead Files
The Dead Files TV Show S15E02

Season: 15
Episode: 2
Air Date: 8 June, 2023
Download Links
     Torrent Download     Magnet Download
     Anonymous Download
Added 8 months ago by eztv (verified).
Tracker Statistics
Seeds: 0
Peers: 5
Stats generated @ 05:36 on 21st Feb 2024
Torrent Info
Torrent File: The.Dead.Files.S15E02.Sudden.Fury.1080p.AMZN.WEB-DL.DDP2.0.H.264-NTb[eztv.re].mkv
Torrent Hash: BAA0CA1C3EE716F43409889BA61263917CFFD2BF
Filesize: 2.30 GB
Released: 15th Jun 2023

File Format: MKV (Matroska)
Resolution: 1920x1080 px
Aspect Ratio: 16:9
Alternate Releases S L
The Dead Files S15E02 He Lurks 720p WEBRip x264-KOMPOST 0 0
The Dead Files S15E02 He Lurks 1080p WEB h264-B2B 0 1
The Dead Files S15E02 1080p WEB h264-CBFM 1 0
The Dead Files S15E02 XviD-AFG 2 1

The Dead Files S15E02 - Sudden Fury

Summary:

Annie thinks she has found her family's forever home in Florida until mysterious noises, imposing shadow figures and unexplained bite marks ruin their lives; this frightened mom seeks Steve and Amy's help to reveal who or what is tormenting them.



The Dead Files S15E02 Sudden Fury 1080p AMZN WEB-DL DDP2 0 H 264-NTb EZTV
The Dead Files S15E2 Screenshot


General
Unique ID: 307869728184019721325971701060870404834 (0xE79D8D87723F8FC81F8A4604A6A0FAE2)
Complete name: The.Dead.Files.S15E02.Sudden.Fury.1080p.AMZN.WEB-DL.DDP2.0.H.264-NTb.mkv
Format: Matroska
Format version: Version 4
File size: 2.30 GiB
Duration: 42 min 9 s
Overall bit rate: 7 825 kb/s
Writing application: mkvmerge v77.0 ('Elemental') 64-bit
Writing library: libebml v1.4.4 + libmatroska v1.7.1

Video
ID: 1
Format: AVC
Format/Info: Advanced Video Codec
Format profile: High@L4
Format settings: CABAC / 4 Ref Frames
Format settings, CABAC: Yes
Format settings, Reference frames: 4 frames
Codec ID: V_MPEG4/ISO/AVC
Duration: 42 min 9 s
Bit rate mode: Constant
Bit rate: 7 598 kb/s
Nominal bit rate: 10 000 kb/s
Width: 1 920 pixels
Height: 1 080 pixels
Display aspect ratio: 16:9
Frame rate mode: Constant
Frame rate: 30.000 FPS
Color space: YUV
Chroma subsampling: 4:2:0
Bit depth: 8 bits
Scan type: Progressive
Bits/(Pixel*Frame): 0.122
Stream size: 2.24 GiB (97%)
Default: Yes
Forced: No
Color range: Limited
Color primaries: BT.709
Transfer characteristics: BT.709
Matrix coefficients: BT.709

Audio
ID: 2
Format: E-AC-3
Format/Info: Enhanced AC-3
Commercial name: Dolby Digital Plus
Codec ID: A_EAC3
Duration: 42 min 9 s
Bit rate mode: Constant
Bit rate: 224 kb/s
Channel(s): 2 channels
Channel layout: L R
Sampling rate: 48.0 kHz
Frame rate: 31.250 FPS (1536 SPF)
Compression mode: Lossy
Stream size: 67.6 MiB (3%)
Language: English (US)
Service kind: Complete Main
Default: Yes
Forced: No

Text #1
ID: 3
Format: UTF-8
Codec ID: S_TEXT/UTF8
Codec ID/Info: UTF-8 Plain Text
Duration: 41 min 58 s
Bit rate: 102 b/s
Frame rate: 0.362 FPS
Count of elements: 912
Stream size: 31.4 KiB (0%)
Language: English (US)
Default: No
Forced: No

Text #2
ID: 4
Format: UTF-8
Codec ID: S_TEXT/UTF8
Codec ID/Info: UTF-8 Plain Text
Duration: 41 min 58 s
Bit rate: 103 b/s
Frame rate: 0.363 FPS
Count of elements: 915
Stream size: 31.8 KiB (0%)
Title: SDH
Language: English (US)
Default: No
Forced: No
ssl  EZTV RSS EZTV Status | EZTV API | DMCA: [email protected]