eztv.yt | eztvstatus.org
Search title:  
TV Packs only
 

The Real Housewives of New York City S14E01 New Era New York 1080p AMZN WEB-DL DDP2 0 H 264-NTb EZTV

Episode Breakdown
The Real Housewives of New York City
The Real Housewives of New York City TV Show S14E01

Season: 14
Episode: 1
Air Date: 16 July, 2023
Download Links
     Torrent Download     Magnet Download
     Anonymous Download
Added 7 months ago by eztv (verified).
Tracker Statistics
Seeds: 1
Peers: 0
Stats generated @ 05:51 on 21st Feb 2024
Torrent Info
Torrent File: The.Real.Housewives.of.New.York.City.S14E01.New.Era.New.York.1080p.AMZN.WEB-DL.DDP2.0.H.264-NTb[eztv.re].mkv
Torrent Hash: 2B77FD94E1EF1428993F5190E4CD2AB3E46CDC25
Filesize: 2.92 GB
Released: 18th Jul 2023

File Format: MKV (Matroska)
Resolution: 1920x1080 px
Aspect Ratio: 16:9
Alternate Releases S L
The Real Housewives of New York City S14E01 720p WEB h264-EDITH 2 1
The Real Housewives of New York City S14E01 1080p WEB h264-EDITH 9 1
The Real Housewives of New York City S14E01 720p HEVC x265-MeGusta 0 0
The Real Housewives of New York City S14E01 1080p HEVC x265-MeGusta 0 0

The Real Housewives of New York City S14E01 - New Era, New York

Summary:

Meet the Real Housewives of New York City: Brynn, Erin, Jenna, Jessel, Sai and Ubah. Brynn and Jessel catch up with Sai at a champagne playdate in Brooklyn. Ubah and Erin dish over coffee in Washington Square Park. The ladies who find themselves caught in a cheesy web of rumors confront each other at style icon Jenna Lyons' girls' night.



The Real Housewives of New York City S14E01 New Era New York 1080p AMZN WEB-DL DDP2 0 H 264-NTb EZTV
The Real Housewives of New York City S14E1 Screenshot


General
Unique ID: 206724354251129605432144866236934447953 (0x9B85A9939CC67A4976DA1B66E24CE351)
Complete name: The.Real.Housewives.of.New.York.City.S14E01.New.Era.New.York.1080p.AMZN.WEB-DL.DDP2.0.H.264-NTb.mkv
Format: Matroska
Format version: Version 4
File size: 2.92 GiB
Duration: 43 min 7 s
Overall bit rate: 9 703 kb/s
Frame rate: 23.976 FPS
Writing application: mkvmerge v78.0 ('Running') 64-bit
Writing library: libebml v1.4.4 + libmatroska v1.7.1

Video
ID: 1
Format: AVC
Format/Info: Advanced Video Codec
Format profile: High@L4
Format settings: CABAC / 4 Ref Frames
Format settings, CABAC: Yes
Format settings, Reference frames: 4 frames
Codec ID: V_MPEG4/ISO/AVC
Duration: 43 min 7 s
Bit rate mode: Constant
Bit rate: 9 477 kb/s
Nominal bit rate: 10 000 kb/s
Width: 1 920 pixels
Height: 1 080 pixels
Display aspect ratio: 16:9
Frame rate mode: Constant
Frame rate: 23.976 (24000/1001) FPS
Color space: YUV
Chroma subsampling: 4:2:0
Bit depth: 8 bits
Scan type: Progressive
Bits/(Pixel*Frame): 0.191
Stream size: 2.86 GiB (98%)
Default: Yes
Forced: No
Color range: Limited
Color primaries: BT.709
Transfer characteristics: BT.709
Matrix coefficients: BT.709

Audio
ID: 2
Format: E-AC-3
Format/Info: Enhanced AC-3
Commercial name: Dolby Digital Plus
Codec ID: A_EAC3
Duration: 43 min 7 s
Bit rate mode: Constant
Bit rate: 224 kb/s
Channel(s): 2 channels
Channel layout: L R
Sampling rate: 48.0 kHz
Frame rate: 31.250 FPS (1536 SPF)
Compression mode: Lossy
Stream size: 69.1 MiB (2%)
Language: English (US)
Service kind: Complete Main
Default: Yes
Forced: No

Text #1
ID: 3
Format: UTF-8
Codec ID: S_TEXT/UTF8
Codec ID/Info: UTF-8 Plain Text
Duration: 43 min 3 s
Bit rate: 133 b/s
Frame rate: 0.508 FPS
Count of elements: 1311
Stream size: 42.1 KiB (0%)
Language: English (US)
Default: No
Forced: No

Text #2
ID: 4
Format: UTF-8
Codec ID: S_TEXT/UTF8
Codec ID/Info: UTF-8 Plain Text
Duration: 43 min 3 s
Bit rate: 141 b/s
Frame rate: 0.535 FPS
Count of elements: 1382
Stream size: 44.7 KiB (0%)
Title: SDH
Language: English (US)
Default: No
Forced: No
ssl  EZTV RSS EZTV Status | EZTV API | DMCA: [email protected]