eztv.yt | eztvstatus.org
Search title:  
TV Packs only
 

The Real Housewives of New York City S14E03 Two Truths and No Shakshuka 1080p AMZN WEB-DL DDP2 0 H 264-NTb EZTV

Episode Breakdown
The Real Housewives of New York City
The Real Housewives of New York City TV Show S14E03

Season: 14
Episode: 3
Air Date: 30 July, 2023
Download Links
     Torrent Download     Magnet Download
     Anonymous Download
Added 9 months ago by eztv (verified).
Tracker Statistics
Seeds: 1
Peers: 1
Stats generated @ 17:56 on 24th May 2024
Torrent Info
Torrent File: The.Real.Housewives.of.New.York.City.S14E03.Two.Truths.and.No.Shakshuka.1080p.AMZN.WEB-DL.DDP2.0.H.264-NTb[eztv.re].mkv
Torrent Hash: B4538372025DAD819E3783FC01DF0F0C625E234F
Filesize: 2.91 GB
Released: 31st Jul 2023

File Format: MKV (Matroska)
Resolution: 1920x1080 px
Aspect Ratio: 16:9
Alternate Releases S L
The Real Housewives of New York City S14E03 Two Truths and No Shakshuka 720p AMZN WEB-DL DDP2 0 H 264-NTb 0 0
The Real Housewives of New York City S14E03 480p x264-mSD 2 0
The Real Housewives Of New York City S14E03 1080p AMZN WEB-DL DDP2 0 H 264-NTb 0 0
The Real Housewives Of New York City S14E03 720p AMZN WEB-DL DDP2 0 H 264-NTb 0 0
The Real Housewives of New York City S14E03 XviD-AFG 0 0
The Real Housewives of New York City S14E03 720p WEB h264-EDITH 0 1
The Real Housewives of New York City S14E03 1080p WEB h264-EDITH 0 0

The Real Housewives of New York City S14E03 - Two Truths and No Shakshuka

Summary:

The women confront Jenna for sneaking out in the middle of the night. Brynn arrives in the Hamptons. At lunch, the women grill Jessel over her incessant complaining and Brynn calls out a double standard. Over sushi, everyone bonds while playing a scandalous game of "Two Truths and a Lie."



The Real Housewives of New York City S14E03 Two Truths and No Shakshuka 1080p AMZN WEB-DL DDP2 0 H 264-NTb EZTV
The Real Housewives of New York City S14E3 Screenshot


General
Unique ID: 291620292820326494849252280692320872999 (0xDB640682CD0AF7F1C6BCE9E0DADDAA27)
Complete name: The.Real.Housewives.of.New.York.City.S14E03.Two.Truths.and.No.Shakshuka.1080p.AMZN.WEB-DL.DDP2.0.H.264-NTb.mkv
Format: Matroska
Format version: Version 4
File size: 2.91 GiB
Duration: 43 min 10 s
Overall bit rate: 9 647 kb/s
Frame rate: 23.976 FPS
Writing application: mkvmerge v78.0 ('Running') 64-bit
Writing library: libebml v1.4.4 + libmatroska v1.7.1

Video
ID: 1
Format: AVC
Format/Info: Advanced Video Codec
Format profile: High@L4
Format settings: CABAC / 4 Ref Frames
Format settings, CABAC: Yes
Format settings, Reference frames: 4 frames
Codec ID: V_MPEG4/ISO/AVC
Duration: 43 min 10 s
Bit rate mode: Constant
Bit rate: 9 420 kb/s
Nominal bit rate: 10 000 kb/s
Width: 1 920 pixels
Height: 1 080 pixels
Display aspect ratio: 16:9
Frame rate mode: Constant
Frame rate: 23.976 (24000/1001) FPS
Color space: YUV
Chroma subsampling: 4:2:0
Bit depth: 8 bits
Scan type: Progressive
Bits/(Pixel*Frame): 0.189
Stream size: 2.84 GiB (98%)
Default: Yes
Forced: No
Color range: Limited
Color primaries: BT.709
Transfer characteristics: BT.709
Matrix coefficients: BT.709

Audio
ID: 2
Format: E-AC-3
Format/Info: Enhanced AC-3
Commercial name: Dolby Digital Plus
Codec ID: A_EAC3
Duration: 43 min 10 s
Bit rate mode: Constant
Bit rate: 224 kb/s
Channel(s): 2 channels
Channel layout: L R
Sampling rate: 48.0 kHz
Frame rate: 31.250 FPS (1536 SPF)
Compression mode: Lossy
Stream size: 69.2 MiB (2%)
Language: English (US)
Service kind: Complete Main
Default: Yes
Forced: No

Text #1
ID: 3
Format: UTF-8
Codec ID: S_TEXT/UTF8
Codec ID/Info: UTF-8 Plain Text
Duration: 43 min 2 s
Bit rate: 132 b/s
Frame rate: 0.496 FPS
Count of elements: 1282
Stream size: 41.9 KiB (0%)
Language: English (US)
Default: No
Forced: No

Text #2
ID: 4
Format: UTF-8
Codec ID: S_TEXT/UTF8
Codec ID/Info: UTF-8 Plain Text
Duration: 43 min 7 s
Bit rate: 137 b/s
Frame rate: 0.516 FPS
Count of elements: 1334
Stream size: 43.3 KiB (0%)
Title: SDH
Language: English (US)
Default: No
Forced: No
ssl  EZTV RSS EZTV Status | EZTV API | DMCA: [email protected]