eztv.yt | eztvstatus.org
Search title:  
TV Packs only
 

The Real Housewives of New York City S14E07 You Wreath What You Sow 1080p AMZN WEB-DL DDP2 0 H 264-NTb EZTV

Episode Breakdown
The Real Housewives of New York City
The Real Housewives of New York City TV Show S14E07

Season: 14
Episode: 7
Air Date: 27 August, 2023
Download Links
     Torrent Download     Magnet Download
     Anonymous Download
Added 5 months ago by eztv (verified).
Tracker Statistics
Seeds: 1
Peers: 0
Stats generated @ 06:39 on 21st Feb 2024
Torrent Info
Torrent File: The.Real.Housewives.of.New.York.City.S14E07.You.Wreath.What.You.Sow.1080p.AMZN.WEB-DL.DDP2.0.H.264-NTb[eztv.re].mkv
Torrent Hash: FE3F641B8D04F816221DD6B17768C8579E864083
Filesize: 2.93 GB
Released: 29th Aug 2023

File Format: MKV (Matroska)
Resolution: 1920x1080 px
Aspect Ratio: 16:9
Alternate Releases S L
The Real Housewives of New York City S14E07 1080p WEB h264-EDITH 5 0
The Real Housewives of New York City S14E07 XviD-AFG 0 1
The Real Housewives of New York City S14E07 720p WEB h264-EDITH 0 0
The Real Housewives of New York City S14E07 480p x264-mSD 1 0
The Real Housewives of New York City S14E07 720p HEVC x265-MeGusta 2 0
The Real Housewives of New York City S14E07 1080p HEVC x265-MeGusta 2 0

The Real Housewives of New York City S14E07 - You Wreath What You Sow

Summary:

Sai helps Jenna cast models for her false eyelash line. Brynn helps her ex-fiancé shop for luxury classic cars. After keeping her IVF journey a secret, Jessel finally reveals her infertility struggles to her mother. Brynn invites the women to holiday wreath making, where Erin confronts her about her antics.



The Real Housewives of New York City S14E07 You Wreath What You Sow 1080p AMZN WEB-DL DDP2 0 H 264-NTb EZTV
The Real Housewives of New York City S14E7 Screenshot


General
Unique ID: 465525321127251707151012479368374146 (0x59A82B9EA0FC27D77931065C732782)
Complete name: The.Real.Housewives.of.New.York.City.S14E07.You.Wreath.What.You.Sow.1080p.AMZN.WEB-DL.DDP2.0.H.264-NTb.mkv
Format: Matroska
Format version: Version 4
File size: 2.93 GiB
Duration: 43 min 7 s
Overall bit rate: 9 741 kb/s
Frame rate: 23.976 FPS
Writing application: mkvmerge v78.0 ('Running') 64-bit
Writing library: libebml v1.4.4 + libmatroska v1.7.1

Video
ID: 1
Format: AVC
Format/Info: Advanced Video Codec
Format profile: High@L4
Format settings: CABAC / 4 Ref Frames
Format settings, CABAC: Yes
Format settings, Reference frames: 4 frames
Codec ID: V_MPEG4/ISO/AVC
Duration: 43 min 7 s
Bit rate mode: Constant
Bit rate: 9 515 kb/s
Nominal bit rate: 10 000 kb/s
Width: 1 920 pixels
Height: 1 080 pixels
Display aspect ratio: 16:9
Frame rate mode: Constant
Frame rate: 23.976 (24000/1001) FPS
Color space: YUV
Chroma subsampling: 4:2:0
Bit depth: 8 bits
Scan type: Progressive
Bits/(Pixel*Frame): 0.191
Stream size: 2.87 GiB (98%)
Default: Yes
Forced: No
Color range: Limited
Color primaries: BT.709
Transfer characteristics: BT.709
Matrix coefficients: BT.709

Audio
ID: 2
Format: E-AC-3
Format/Info: Enhanced AC-3
Commercial name: Dolby Digital Plus
Codec ID: A_EAC3
Duration: 43 min 7 s
Bit rate mode: Constant
Bit rate: 224 kb/s
Channel(s): 2 channels
Channel layout: L R
Sampling rate: 48.0 kHz
Frame rate: 31.250 FPS (1536 SPF)
Compression mode: Lossy
Stream size: 69.1 MiB (2%)
Language: English (US)
Service kind: Complete Main
Default: Yes
Forced: No

Text #1
ID: 3
Format: UTF-8
Codec ID: S_TEXT/UTF8
Codec ID/Info: UTF-8 Plain Text
Duration: 43 min 4 s
Bit rate: 136 b/s
Frame rate: 0.472 FPS
Count of elements: 1221
Stream size: 43.0 KiB (0%)
Language: English (US)
Default: No
Forced: No

Text #2
ID: 4
Format: UTF-8
Codec ID: S_TEXT/UTF8
Codec ID/Info: UTF-8 Plain Text
Duration: 43 min 4 s
Bit rate: 140 b/s
Frame rate: 0.487 FPS
Count of elements: 1260
Stream size: 44.3 KiB (0%)
Title: SDH
Language: English (US)
Default: No
Forced: No
ssl  EZTV RSS EZTV Status | EZTV API | DMCA: [email protected]