eztv.yt | eztvstatus.org
Search title:  
TV Packs only
 

The Real Housewives of New York City S14E09 Nothing Vanilla About Anguilla 1080p AMZN WEB-DL DDP2 0 H 264-NTb EZTV

Episode Breakdown
The Real Housewives of New York City
The Real Housewives of New York City TV Show S14E09

Season: 14
Episode: 9
Air Date: 10 September, 2023
Download Links
     Torrent Download     Magnet Download
     Anonymous Download
Added 5 months ago by eztv (verified).
Tracker Statistics
Seeds: 0
Peers: 0
Stats generated @ 15:43 on 4th Mar 2024
Torrent Info
Torrent File: The.Real.Housewives.of.New.York.City.S14E09.Nothing.Vanilla.About.Anguilla.1080p.AMZN.WEB-DL.DDP2.0.H.264-NTb[eztv.re].mkv
Torrent Hash: 0DB896CA83CAC269DEC87C5CF01A469EB67FC872
Filesize: 2.99 GB
Released: 11th Sep 2023

File Format: MKV (Matroska)
Resolution: 1920x1080 px
Aspect Ratio: 16:9
Alternate Releases S L
The Real Housewives of New York City S14E09 480p x264-mSD 0 0
The Real Housewives of New York City S14E09 720p HEVC x265-MeGusta 2 0
The Real Housewives of New York City S14E09 1080p WEB h264-EDITH 1 2
The Real Housewives of New York City S14E09 720p WEB h264-EDITH 0 1
The Real Housewives of New York City S14E09 1080p HEVC x265-MeGusta 3 1
The Real Housewives of New York City S14E09 Nothing Vanilla About Anguilla 720p AMZN WEB-DL DDP2 0 H 264-NTb 1 0
The Real Housewives of New York City S14E09 XviD-AFG 1 0

The Real Housewives of New York City S14E09 - Nothing Vanilla About Anguilla

Summary:
The Real Housewives of New York City S14E09 Nothing Vanilla About Anguilla 1080p AMZN WEB-DL DDP2 0 H 264-NTb EZTV
The Real Housewives of New York City S14E9 Screenshot


General
Unique ID: 213256452058318855165641500577649219170 (0xA06FB2DD0A0591F4B52A43E95FD15662)
Complete name: The.Real.Housewives.of.New.York.City.S14E09.Nothing.Vanilla.About.Anguilla.1080p.AMZN.WEB-DL.DDP2.0.H.264-NTb.mkv
Format: Matroska
Format version: Version 4
File size: 2.99 GiB
Duration: 43 min 7 s
Overall bit rate: 9 927 kb/s
Frame rate: 23.976 FPS
Writing application: mkvmerge v78.0 ('Running') 64-bit
Writing library: libebml v1.4.4 + libmatroska v1.7.1

Video
ID: 1
Format: AVC
Format/Info: Advanced Video Codec
Format profile: High@L4
Format settings: CABAC / 4 Ref Frames
Format settings, CABAC: Yes
Format settings, Reference frames: 4 frames
Codec ID: V_MPEG4/ISO/AVC
Duration: 43 min 7 s
Bit rate mode: Constant
Bit rate: 10 000 kb/s
Width: 1 920 pixels
Height: 1 080 pixels
Display aspect ratio: 16:9
Frame rate mode: Constant
Frame rate: 23.976 (24000/1001) FPS
Color space: YUV
Chroma subsampling: 4:2:0
Bit depth: 8 bits
Scan type: Progressive
Bits/(Pixel*Frame): 0.201
Stream size: 2.92 GiB (98%)
Default: Yes
Forced: No
Color range: Limited
Color primaries: BT.709
Transfer characteristics: BT.709
Matrix coefficients: BT.709

Audio
ID: 2
Format: E-AC-3
Format/Info: Enhanced AC-3
Commercial name: Dolby Digital Plus
Codec ID: A_EAC3
Duration: 43 min 7 s
Bit rate mode: Constant
Bit rate: 224 kb/s
Channel(s): 2 channels
Channel layout: L R
Sampling rate: 48.0 kHz
Frame rate: 31.250 FPS (1536 SPF)
Compression mode: Lossy
Stream size: 69.1 MiB (2%)
Language: English (US)
Service kind: Complete Main
Default: Yes
Forced: No

Text #1
ID: 3
Format: UTF-8
Codec ID: S_TEXT/UTF8
Codec ID/Info: UTF-8 Plain Text
Duration: 43 min 4 s
Bit rate: 138 b/s
Frame rate: 0.514 FPS
Count of elements: 1328
Stream size: 43.7 KiB (0%)
Language: English (US)
Default: No
Forced: No

Text #2
ID: 4
Format: UTF-8
Codec ID: S_TEXT/UTF8
Codec ID/Info: UTF-8 Plain Text
Duration: 43 min 4 s
Bit rate: 142 b/s
Frame rate: 0.534 FPS
Count of elements: 1381
Stream size: 45.1 KiB (0%)
Title: SDH
Language: English (US)
Default: No
Forced: No
ssl  EZTV RSS EZTV Status | EZTV API | DMCA: [email protected]