eztv.yt | eztvstatus.org
Search title:  
TV Packs only
 

Sister Wives S18E05 When the Going Gets Tough 1080p AMZN WEB-DL DDP2 0 H 264-NTb EZTV

Episode Breakdown
Sister Wives
Sister Wives TV Show S18E05

Season: 18
Episode: 5
Air Date: 17 September, 2023
Download Links
     Torrent Download     Magnet Download
     Anonymous Download
Added 9 months ago by eztv (verified).
Tracker Statistics
Seeds: 1
Peers: 0
Stats generated @ 23:46 on 13th Jul 2024
Torrent Info
Torrent File: Sister.Wives.S18E05.When.the.Going.Gets.Tough.1080p.AMZN.WEB-DL.DDP2.0.H.264-NTb[eztv.re].mkv
Torrent Hash: 08AB8D4BE138642536320BA24045ECB380BD0846
Filesize: 2.92 GB
Released: 18th Sep 2023

File Format: MKV (Matroska)
Resolution: 1920x1080 px
Aspect Ratio: 16:9
Alternate Releases S L
Sister Wives S18E05 1080p WEB h264-EDITH 1 2
Sister Wives S18E05 1080p HEVC x265-MeGusta 3 1
Sister Wives S18E05 When the Going Gets Tough 720p AMZN WEB-DL DDP2 0 H 264-NTb 1 3
Sister Wives S18E05 XviD-AFG 0 0

Sister Wives S18E05 - When the Going Gets Tough

Summary:

The Browns discuss how things went over Christmas; Janelle confesses to Christine that she doesn't know if her marriage can be fixed; Robyn and Meri try to dissect what went wrong and reveal that Kody was not always equal with his time.



Sister Wives S18E05 When the Going Gets Tough 1080p AMZN WEB-DL DDP2 0 H 264-NTb EZTV
Sister Wives S18E5 Screenshot


General
Unique ID: 79256120843674393958703406049428907532 (0x3BA02C73BA8F5EA821D8F11242EA260C)
Complete name: Sister.Wives.S18E05.When.the.Going.Gets.Tough.1080p.AMZN.WEB-DL.DDP2.0.H.264-NTb.mkv
Format: Matroska
Format version: Version 4
File size: 2.92 GiB
Duration: 42 min 38 s
Overall bit rate: 9 808 kb/s
Frame rate: 30.000 FPS
Writing application: mkvmerge v78.0 ('Running') 64-bit
Writing library: libebml v1.4.4 + libmatroska v1.7.1

Video
ID: 1
Format: AVC
Format/Info: Advanced Video Codec
Format profile: High@L4
Format settings: CABAC / 4 Ref Frames
Format settings, CABAC: Yes
Format settings, Reference frames: 4 frames
Codec ID: V_MPEG4/ISO/AVC
Duration: 42 min 38 s
Bit rate mode: Constant
Bit rate: 10 000 kb/s
Width: 1 920 pixels
Height: 1 080 pixels
Display aspect ratio: 16:9
Frame rate mode: Constant
Frame rate: 30.000 FPS
Color space: YUV
Chroma subsampling: 4:2:0
Bit depth: 8 bits
Scan type: Progressive
Bits/(Pixel*Frame): 0.161
Stream size: 2.85 GiB (98%)
Default: Yes
Forced: No
Color range: Limited
Color primaries: BT.709
Transfer characteristics: BT.709
Matrix coefficients: BT.709

Audio
ID: 2
Format: E-AC-3
Format/Info: Enhanced AC-3
Commercial name: Dolby Digital Plus
Codec ID: A_EAC3
Duration: 42 min 38 s
Bit rate mode: Constant
Bit rate: 224 kb/s
Channel(s): 2 channels
Channel layout: L R
Sampling rate: 48.0 kHz
Frame rate: 31.250 FPS (1536 SPF)
Compression mode: Lossy
Stream size: 68.3 MiB (2%)
Language: English (US)
Service kind: Complete Main
Default: Yes
Forced: No

Text #1
ID: 3
Format: UTF-8
Codec ID: S_TEXT/UTF8
Codec ID/Info: UTF-8 Plain Text
Duration: 42 min 35 s
Bit rate: 114 b/s
Frame rate: 0.383 FPS
Count of elements: 979
Stream size: 35.7 KiB (0%)
Language: English (US)
Default: No
Forced: No

Text #2
ID: 4
Format: UTF-8
Codec ID: S_TEXT/UTF8
Codec ID/Info: UTF-8 Plain Text
Duration: 42 min 35 s
Bit rate: 117 b/s
Frame rate: 0.391 FPS
Count of elements: 999
Stream size: 36.8 KiB (0%)
Title: SDH
Language: English (US)
Default: No
Forced: No

ssl  EZTV RSS EZTV Status | EZTV API | DMCA: [email protected]