eztv.yt | eztvstatus.org
Search title:  
TV Packs only
 

The Chelsea Detective S02E04 A Crime of Passion 720p AMZN WEB-DL DDP5 1 H 264-NTb EZTV

Episode Breakdown
The Chelsea Detective
The Chelsea Detective TV Show S02E04

Season: 2
Episode: 4
Air Date: 18 September, 2023
Download Links
     Torrent Download     Magnet Download
     Anonymous Download
Added 9 months ago by eztv (verified).
Tracker Statistics
Seeds: 4
Peers: 1
Stats generated @ 07:12 on 22nd Jun 2024
Torrent Info
Torrent File: The.Chelsea.Detective.S02E04.A.Crime.of.Passion.720p.AMZN.WEB-DL.DDP5.1.H.264-NTb[eztv.re].mkv
Torrent Hash: CEC42E64D33122640F6221EF376294ABD3AF9AD9
Filesize: 2.21 GB
Released: 18th Sep 2023

File Format: MKV (Matroska)
Resolution: 1280x720 px
Aspect Ratio: 16:9
Alternate Releases S L
The Chelsea Detective S02E04 A Crime of Passion 1080p AMZN WEB-DL DDP5 1 H 264-NTb 2 1
The Chelsea Detective S02E04 A Crime of Passion 1080p WEBRip EAC3 H265-d3g 1 1

The Chelsea Detective S02E04 - A Crime of Passion

Summary:

Jack Felton, the charming owner of a fruit and vegetable delivery company, is found stabbed at home in what looks like a frenzied attack. The detectives must unravel romantic jealousies, family conflicts, and business rivalries to nab the killer.



The Chelsea Detective S02E04 A Crime of Passion 720p AMZN WEB-DL DDP5 1 H 264-NTb EZTV
The Chelsea Detective S2E4 Screenshot


General
Unique ID: 73148805053617866108093548165601342991 (0x3707F289207DA20469F6D8FDA47EB60F)
Complete name: The.Chelsea.Detective.S02E04.A.Crime.of.Passion.720p.AMZN.WEB-DL.DDP5.1.H.264-NTb.mkv
Format: Matroska
Format version: Version 4
File size: 2.21 GiB
Duration: 1 h 28 min
Overall bit rate: 3 590 kb/s
Frame rate: 25.000 FPS
Writing application: mkvmerge v79.0 ('Funeral Pyres') 64-bit
Writing library: libebml v1.4.4 + libmatroska v1.7.1

Video
ID: 1
Format: AVC
Format/Info: Advanced Video Codec
Format profile: [email protected]
Format settings: CABAC / 4 Ref Frames
Format settings, CABAC: Yes
Format settings, Reference frames: 4 frames
Codec ID: V_MPEG4/ISO/AVC
Duration: 1 h 28 min
Bit rate mode: Constant
Bit rate: 2 948 kb/s
Nominal bit rate: 6 000 kb/s
Width: 1 280 pixels
Height: 720 pixels
Display aspect ratio: 16:9
Frame rate mode: Constant
Frame rate: 25.000 FPS
Color space: YUV
Chroma subsampling: 4:2:0
Bit depth: 8 bits
Scan type: Progressive
Bits/(Pixel*Frame): 0.128
Stream size: 1.81 GiB (82%)
Default: Yes
Forced: No
Color range: Limited
Color primaries: BT.709
Transfer characteristics: BT.709
Matrix coefficients: BT.709

Audio
ID: 2
Format: E-AC-3
Format/Info: Enhanced AC-3
Commercial name: Dolby Digital Plus
Codec ID: A_EAC3
Duration: 1 h 28 min
Bit rate mode: Constant
Bit rate: 640 kb/s
Channel(s): 6 channels
Channel layout: L R C LFE Ls Rs
Sampling rate: 48.0 kHz
Frame rate: 31.250 FPS (1536 SPF)
Compression mode: Lossy
Stream size: 403 MiB (18%)
Language: English (GB)
Service kind: Complete Main
Default: Yes
Forced: No

Text #1
ID: 3
Format: UTF-8
Codec ID: S_TEXT/UTF8
Codec ID/Info: UTF-8 Plain Text
Duration: 1 h 26 min
Bit rate: 77 b/s
Frame rate: 0.273 FPS
Count of elements: 1424
Stream size: 49.3 KiB (0%)
Language: English (GB)
Default: No
Forced: No

Text #2
ID: 4
Format: UTF-8
Codec ID: S_TEXT/UTF8
Codec ID/Info: UTF-8 Plain Text
Duration: 1 h 26 min
Bit rate: 80 b/s
Frame rate: 0.288 FPS
Count of elements: 1501
Stream size: 51.1 KiB (0%)
Title: SDH
Language: English (GB)
Default: No
Forced: No

ssl  EZTV RSS EZTV Status | EZTV API | DMCA: [email protected]