eztv.yt | eztvstatus.org
Search title:  
TV Packs only
 

The Chelsea Detective S02E04 A Crime of Passion 1080p AMZN WEB-DL DDP5 1 H 264-NTb EZTV

Episode Breakdown
The Chelsea Detective
The Chelsea Detective TV Show S02E04

Season: 2
Episode: 4
Air Date: 18 September, 2023
Download Links
     Torrent Download     Magnet Download
     Anonymous Download
Added 8 months ago by eztv (verified).
Tracker Statistics
Seeds: 1
Peers: 2
Stats generated @ 06:41 on 15th Jun 2024
Torrent Info
Torrent File: The.Chelsea.Detective.S02E04.A.Crime.of.Passion.1080p.AMZN.WEB-DL.DDP5.1.H.264-NTb[eztv.re].mkv
Torrent Hash: 8067E2775F97BABB649B6B60D389E38A859F2089
Filesize: 4.98 GB
Released: 18th Sep 2023

File Format: MKV (Matroska)
Resolution: 1920x1080 px
Aspect Ratio: 16:9
Alternate Releases S L
The Chelsea Detective S02E04 A Crime of Passion 720p AMZN WEB-DL DDP5 1 H 264-NTb 4 2
The Chelsea Detective S02E04 A Crime of Passion 1080p WEBRip EAC3 H265-d3g 0 1

The Chelsea Detective S02E04 - A Crime of Passion

Summary:

Jack Felton, the charming owner of a fruit and vegetable delivery company, is found stabbed at home in what looks like a frenzied attack. The detectives must unravel romantic jealousies, family conflicts, and business rivalries to nab the killer.



The Chelsea Detective S02E04 A Crime of Passion 1080p AMZN WEB-DL DDP5 1 H 264-NTb EZTV
The Chelsea Detective S2E4 Screenshot


General
Unique ID: 165352332172870123119209512982226926184 (0x7C65B367034269FE286599DF4DD3FA68)
Complete name: The.Chelsea.Detective.S02E04.A.Crime.of.Passion.1080p.AMZN.WEB-DL.DDP5.1.H.264-NTb.mkv
Format: Matroska
Format version: Version 4
File size: 4.98 GiB
Duration: 1 h 28 min
Overall bit rate: 8 092 kb/s
Frame rate: 25.000 FPS
Writing application: mkvmerge v79.0 ('Funeral Pyres') 64-bit
Writing library: libebml v1.4.4 + libmatroska v1.7.1

Video
ID: 1
Format: AVC
Format/Info: Advanced Video Codec
Format profile: High@L4
Format settings: CABAC / 4 Ref Frames
Format settings, CABAC: Yes
Format settings, Reference frames: 4 frames
Codec ID: V_MPEG4/ISO/AVC
Duration: 1 h 28 min
Bit rate mode: Constant
Bit rate: 7 449 kb/s
Nominal bit rate: 10 000 kb/s
Width: 1 920 pixels
Height: 1 080 pixels
Display aspect ratio: 16:9
Frame rate mode: Constant
Frame rate: 25.000 FPS
Color space: YUV
Chroma subsampling: 4:2:0
Bit depth: 8 bits
Scan type: Progressive
Bits/(Pixel*Frame): 0.144
Stream size: 4.58 GiB (92%)
Default: Yes
Forced: No
Color range: Limited
Color primaries: BT.709
Transfer characteristics: BT.709
Matrix coefficients: BT.709

Audio
ID: 2
Format: E-AC-3
Format/Info: Enhanced AC-3
Commercial name: Dolby Digital Plus
Codec ID: A_EAC3
Duration: 1 h 28 min
Bit rate mode: Constant
Bit rate: 640 kb/s
Channel(s): 6 channels
Channel layout: L R C LFE Ls Rs
Sampling rate: 48.0 kHz
Frame rate: 31.250 FPS (1536 SPF)
Compression mode: Lossy
Stream size: 403 MiB (8%)
Language: English (GB)
Service kind: Complete Main
Default: Yes
Forced: No

Text #1
ID: 3
Format: UTF-8
Codec ID: S_TEXT/UTF8
Codec ID/Info: UTF-8 Plain Text
Duration: 1 h 26 min
Bit rate: 77 b/s
Frame rate: 0.273 FPS
Count of elements: 1424
Stream size: 49.3 KiB (0%)
Language: English (GB)
Default: No
Forced: No

Text #2
ID: 4
Format: UTF-8
Codec ID: S_TEXT/UTF8
Codec ID/Info: UTF-8 Plain Text
Duration: 1 h 26 min
Bit rate: 80 b/s
Frame rate: 0.288 FPS
Count of elements: 1501
Stream size: 51.1 KiB (0%)
Title: SDH
Language: English (GB)
Default: No
Forced: No

ssl  EZTV RSS EZTV Status | EZTV API | DMCA: [email protected]