eztv.yt | eztvstatus.org
Search title:  
TV Packs only
 

The Killing Kind S01E04 1080p WEBRip DDP5 1 H265-d3g EZTV

Episode Breakdown
The Killing Kind
The Killing Kind TV Show S01E04

Season: 1
Episode: 4
Air Date: 7 September, 2023
Download Links
     Torrent Download     Magnet Download
     Anonymous Download
Added 9 months ago by eztv (verified).
Tracker Statistics
Seeds: 0
Peers: 0
Stats generated @ 09:04 on 22nd Jun 2024
Torrent Info
Torrent File: The.Killing.Kind.S01E04.1080p.WEBRip.DDP5.1.H265-d3g[eztv.re].mkv
Torrent Hash: 22505752A012E236569DBF712D27CEEBA6F6B718
Filesize: 1.86 GB
Released: 18th Sep 2023

File Format: MKV (Matroska)
Resolution: 1920x1080 px
Aspect Ratio: 16:9
Alternate Releases S L
The Killing Kind S01E04 WEBRip x264-XEN0N 3 1
The Killing Kind S01E04 1080p WEB h264-EDITH 0 0
The Killing Kind S01E04 720p WEB h264-EDITH 0 0
The Killing Kind S01E04 480p x264-mSD 1 0
The Killing Kind S01E04 XviD-AFG 1 0
The Killing Kind S01E04 MULTI 1080p WEB H264-HiggsBoson 1 0

The Killing Kind S01E04 - Episode 4

Summary:

Ingrid believes a past case may provide the answer. Detective Nash warns Ingrid off pursuing her own investigation. Webster tells her to trust him, helping take Ingrid another step closer to identifying the killer - but then events turn dangerous.



The Killing Kind S01E04 1080p WEBRip DDP5 1 H265-d3g EZTV
The Killing Kind S1E4 Screenshot


General
Unique ID: 173863706953375869691061685156781318774 (0x82CCEE9409818C888383454948E96276)
Complete name: The.Killing.Kind.S01E04.1080p.WEBRip.DDP5.1.H265-d3g.mkv
Format: Matroska
Format version: Version 2
File size: 1.86 GiB
Duration: 47 min 15 s
Overall bit rate: 5 649 kb/s
Frame rate: 23.976 FPS
Movie name: The.Killing.Kind.S01E04.1080p.WEBRip.DDP5.1.H265-d3g
Encoded date: 2023-09-18 15:09:25 UTC
Writing application: DVDFab 12.1.1.5
Writing library: libebml v1.4.2 + libmatroska v1.6.3

Video
ID: 1
Format: HEVC
Format/Info: High Efficiency Video Coding
Format profile: Main@L4@Main
Codec ID: V_MPEGH/ISO/HEVC
Duration: 47 min 15 s
Bit rate: 4 930 kb/s
Width: 1 920 pixels
Height: 1 080 pixels
Display aspect ratio: 16:9
Frame rate mode: Constant
Frame rate: 23.976 (24000/1001) FPS
Color space: YUV
Chroma subsampling: 4:2:0
Bit depth: 8 bits
Bits/(Pixel*Frame): 0.099
Stream size: 1.63 GiB (87%)
Default: Yes
Forced: No
Color range: Limited
Color primaries: BT.709
Transfer characteristics: BT.709
Matrix coefficients: BT.709

Audio
ID: 2
Format: E-AC-3
Format/Info: Enhanced AC-3
Commercial name: Dolby Digital Plus
Codec ID: A_EAC3
Duration: 47 min 15 s
Bit rate mode: Constant
Bit rate: 640 kb/s
Channel(s): 6 channels
Channel layout: L R C LFE Ls Rs
Sampling rate: 48.0 kHz
Frame rate: 31.250 FPS (1536 SPF)
Compression mode: Lossy
Stream size: 216 MiB (11%)
Language: English
Service kind: Complete Main
Default: Yes
Forced: No

Text #1
ID: 3
Format: PGS
Codec ID: S_HDMV/PGS
Codec ID/Info: Picture based subtitle format used on BDs/HD-DVDs
Duration: 46 min 26 s
Bit rate: 37.4 kb/s
Frame rate: 0.425 FPS
Count of elements: 1184
Stream size: 12.4 MiB (1%)
Language: English
Default: Yes
Forced: No

Text #2
ID: 4
Format: PGS
Codec ID: S_HDMV/PGS
Codec ID/Info: Picture based subtitle format used on BDs/HD-DVDs
Duration: 46 min 34 s
Bit rate: 39.8 kb/s
Frame rate: 0.457 FPS
Count of elements: 1276
Stream size: 13.3 MiB (1%)
Language: English
Default: No
Forced: No

ssl  EZTV RSS EZTV Status | EZTV API | DMCA: [email protected]