eztv.yt | eztvstatus.org
Search title:  
TV Packs only
 

The Real Housewives of New York City S14E11 The Case of the Missing Phone 1080p AMZN WEB-DL DDP2 0 H 264-NTb EZTV

Episode Breakdown
The Real Housewives of New York City
The Real Housewives of New York City TV Show S14E11

Season: 14
Episode: 11
Air Date: 24 September, 2023
Download Links
     Torrent Download     Magnet Download
     Anonymous Download
Added 4 months ago by eztv (verified).
Tracker Statistics
Seeds: 1
Peers: 2
Stats generated @ 06:56 on 21st Feb 2024
Torrent Info
Torrent File: The.Real.Housewives.of.New.York.City.S14E11.The.Case.of.the.Missing.Phone.1080p.AMZN.WEB-DL.DDP2.0.H.264-NTb[eztv.re].mkv
Torrent Hash: 1F38129441397CC0E00A7EDF43F5406A628F0029
Filesize: 3.76 GB
Released: 25th Sep 2023

File Format: MKV (Matroska)
Resolution: 1920x1080 px
Aspect Ratio: 16:9
Alternate Releases S L
The Real Housewives of New York City S14E11 1080p WEB h264-EDITH 4 0
The Real Housewives of New York City S14E11 720p HEVC x265-MeGusta 3 1
The Real Housewives of New York City S14E11 480p x264-mSD 3 0
The Real Housewives of New York City S14E11 1080p HEVC x265-MeGusta 2 1
The Real Housewives of New York City S14E11 XviD-AFG 0 0

The Real Housewives of New York City S14E11 - The Case of the Missing Phone

Summary:
The Real Housewives of New York City S14E11 The Case of the Missing Phone 1080p AMZN WEB-DL DDP2 0 H 264-NTb EZTV
The Real Housewives of New York City S14E11 Screenshot


General
Unique ID: 257086067606955396682125456942058285479 (0xC168F9C031B27360BADCD27C6CE5A9A7)
Complete name: The.Real.Housewives.of.New.York.City.S14E11.The.Case.of.the.Missing.Phone.1080p.AMZN.WEB-DL.DDP2.0.H.264-NTb.mkv
Format: Matroska
Format version: Version 4
File size: 3.76 GiB
Duration: 54 min 9 s
Overall bit rate: 9 930 kb/s
Frame rate: 23.976 FPS
Writing application: mkvmerge v78.0 ('Running') 64-bit
Writing library: libebml v1.4.4 + libmatroska v1.7.1

Video
ID: 1
Format: AVC
Format/Info: Advanced Video Codec
Format profile: High@L4
Format settings: CABAC / 4 Ref Frames
Format settings, CABAC: Yes
Format settings, Reference frames: 4 frames
Codec ID: V_MPEG4/ISO/AVC
Duration: 54 min 9 s
Bit rate mode: Constant
Bit rate: 10 000 kb/s
Width: 1 920 pixels
Height: 1 080 pixels
Display aspect ratio: 16:9
Frame rate mode: Constant
Frame rate: 23.976 (24000/1001) FPS
Color space: YUV
Chroma subsampling: 4:2:0
Bit depth: 8 bits
Scan type: Progressive
Bits/(Pixel*Frame): 0.201
Stream size: 3.67 GiB (98%)
Default: Yes
Forced: No
Color range: Limited
Color primaries: BT.709
Transfer characteristics: BT.709
Matrix coefficients: BT.709

Audio
ID: 2
Format: E-AC-3
Format/Info: Enhanced AC-3
Commercial name: Dolby Digital Plus
Codec ID: A_EAC3
Duration: 54 min 9 s
Bit rate mode: Constant
Bit rate: 224 kb/s
Channel(s): 2 channels
Channel layout: L R
Sampling rate: 48.0 kHz
Frame rate: 31.250 FPS (1536 SPF)
Compression mode: Lossy
Stream size: 86.8 MiB (2%)
Language: English (US)
Service kind: Complete Main
Default: Yes
Forced: No

Text #1
ID: 3
Format: UTF-8
Codec ID: S_TEXT/UTF8
Codec ID/Info: UTF-8 Plain Text
Duration: 54 min 5 s
Bit rate: 133 b/s
Frame rate: 0.495 FPS
Count of elements: 1605
Stream size: 52.9 KiB (0%)
Language: English (US)
Default: No
Forced: No

Text #2
ID: 4
Format: UTF-8
Codec ID: S_TEXT/UTF8
Codec ID/Info: UTF-8 Plain Text
Duration: 54 min 5 s
Bit rate: 137 b/s
Frame rate: 0.518 FPS
Count of elements: 1680
Stream size: 54.6 KiB (0%)
Title: SDH
Language: English (US)
Default: No
Forced: No
ssl  EZTV RSS EZTV Status | EZTV API | DMCA: [email protected]