eztv.yt | eztvstatus.org
Search title:  
TV Packs only
 

Fellow Travelers S01E04 Your Nuts Roasting on an Open Fire 1080p AMZN WEB-DL DDP5 1 H 264-NTb EZTV

Episode Breakdown
Fellow Travelers
Fellow Travelers TV Show S01E04

Season: 1
Episode: 4
Air Date: 17 November, 2023
Download Links
     Torrent Download     Magnet Download
     Anonymous Download
Added 3 months ago by eztv (verified).
Tracker Statistics
Seeds: 9
Peers: 2
Stats generated @ 06:02 on 21st Feb 2024
Torrent Info
Torrent File: Fellow.Travelers.S01E04.Your.Nuts.Roasting.on.an.Open.Fire.1080p.AMZN.WEB-DL.DDP5.1.H.264-NTb[eztv.re].mkv
Torrent Hash: AB44BBA4D2EEC38493CFCAEE522B439C26B33208
Filesize: 2.68 GB
Released: 18th Nov 2023

File Format: MKV (Matroska)
Resolution: 1920x1080 px
Aspect Ratio: 16:9
Alternate Releases S L
Fellow Travelers S01E04 1080p WEB H264-SuccessfulCrab 24 1
Fellow Travelers S01E04 720p WEB h264-EDITH 8 2
Fellow Travelers S01E04 480p x264-mSD 6 3
Fellow Travelers S01E04 720p HEVC x265-MeGusta 8 5
Fellow Travelers S01E04 XviD-AFG 7 3
Fellow Travelers S01E04 1080p HEVC x265-MeGusta 16 3

Fellow Travelers S01E04 - Your Nuts Roasting on an Open Fire

Summary:

As the government's purge of homosexuals continues, Hawk faces a polygraph test about his sex life and publicly courts Lucy while involving Tim in a desperate plot to destroy McCarthy and Cohn. Marcus makes peace with his attraction to Frankie's feminine persona. David has been drafted and Roy threatens to destroy the Army. In 1980s San Francisco, Hawk meets Marcus and Frankie's adopted son and Tim recruits Hawk to help his AIDS activist group.



Fellow Travelers S01E04 Your Nuts Roasting on an Open Fire 1080p AMZN WEB-DL DDP5 1 H 264-NTb EZTV
Fellow Travelers S1E4 Screenshot


General
Unique ID: 205231200915074306002286634040128572398 (0x9A66176EEF74A887803073493A6E0BEE)
Complete name: Fellow.Travelers.S01E04.Your.Nuts.Roasting.on.an.Open.Fire.1080p.AMZN.WEB-DL.DDP5.1.H.264-NTb.mkv
Format: Matroska
Format version: Version 4
File size: 2.68 GiB
Duration: 57 min 16 s
Overall bit rate: 6 699 kb/s
Frame rate: 23.976 FPS
Writing application: mkvmerge v78.0 ('Running') 64-bit
Writing library: libebml v1.4.4 + libmatroska v1.7.1

Video
ID: 1
Format: AVC
Format/Info: Advanced Video Codec
Format profile: High@L4
Format settings: CABAC / 4 Ref Frames
Format settings, CABAC: Yes
Format settings, Reference frames: 4 frames
Codec ID: V_MPEG4/ISO/AVC
Duration: 57 min 16 s
Bit rate mode: Constant
Bit rate: 6 057 kb/s
Nominal bit rate: 10 000 kb/s
Width: 1 920 pixels
Height: 816 pixels
Display aspect ratio: 2.35:1
Frame rate mode: Constant
Frame rate: 23.976 (24000/1001) FPS
Color space: YUV
Chroma subsampling: 4:2:0
Bit depth: 8 bits
Scan type: Progressive
Bits/(Pixel*Frame): 0.161
Stream size: 2.42 GiB (90%)
Default: Yes
Forced: No
Color range: Limited
Color primaries: BT.709
Transfer characteristics: BT.709
Matrix coefficients: BT.709

Audio
ID: 2
Format: E-AC-3
Format/Info: Enhanced AC-3
Commercial name: Dolby Digital Plus
Codec ID: A_EAC3
Duration: 57 min 16 s
Bit rate mode: Constant
Bit rate: 640 kb/s
Channel(s): 6 channels
Channel layout: L R C LFE Ls Rs
Sampling rate: 48.0 kHz
Frame rate: 31.250 FPS (1536 SPF)
Compression mode: Lossy
Delay relative to video: 28 ms
Stream size: 262 MiB (10%)
Language: English (US)
Service kind: Complete Main
Default: Yes
Forced: No

Text #1
ID: 3
Format: UTF-8
Codec ID: S_TEXT/UTF8
Codec ID/Info: UTF-8 Plain Text
Duration: 56 min 32 s
Bit rate: 64 b/s
Frame rate: 0.264 FPS
Count of elements: 895
Stream size: 26.7 KiB (0%)
Language: English (US)
Default: No
Forced: No

Text #2
ID: 4
Format: UTF-8
Codec ID: S_TEXT/UTF8
Codec ID/Info: UTF-8 Plain Text
Duration: 56 min 32 s
Bit rate: 69 b/s
Frame rate: 0.287 FPS
Count of elements: 975
Stream size: 29.0 KiB (0%)
Title: SDH
Language: English (US)
Default: No
Forced: No

ssl  EZTV RSS EZTV Status | EZTV API | DMCA: [email protected]