eztv.yt | eztvstatus.org
Search title:  
TV Packs only
 

Sister Wives S18E14 Always Darkest Before Dawn 720p AMZN WEB-DL DDP2 0 H 264-NTb EZTV

Episode Breakdown
Sister Wives
Sister Wives TV Show S18E14

Season: 18
Episode: 14
Air Date: 19 November, 2023
Download Links
     Torrent Download     Magnet Download
     Anonymous Download
Added 3 months ago by eztv (verified).
Tracker Statistics
Seeds: 2
Peers: 0
Stats generated @ 05:57 on 21st Feb 2024
Torrent Info
Torrent File: Sister.Wives.S18E14.Always.Darkest.Before.Dawn.720p.AMZN.WEB-DL.DDP2.0.H.264-NTb[eztv.re].mkv
Torrent Hash: 53AE10BEFF8FF2E51504F675917E27C3F35F4661
Filesize: 1.68 GB
Released: 20th Nov 2023

File Format: MKV (Matroska)
Resolution: 1280x720 px
Aspect Ratio: 16:9
Alternate Releases S L
Sister Wives S18E14 1080p WEB h264-EDITH 11 1
Sister Wives S18E14 Always Darkest Before Dawn 1080p AMZN WEB-DL DDP2 0 H 264-NTb 1 1
Sister Wives S18E14 XviD-AFG 2 1
Sister Wives S18E14 1080p HEVC x265-MeGusta 3 1

Sister Wives S18E14 - It's Always Darkest Before Dawn

Summary:

Christine talks with her brothers about her newfound happiness and hopes to inspire Janelle, but Janelle won't let go of the past. At Coyote Pass, Robyn is devastated when she learns that this is finally the end of the road for Meri and Kody.



Sister Wives S18E14 Always Darkest Before Dawn 720p AMZN WEB-DL DDP2 0 H 264-NTb EZTV
Sister Wives S18E14 Screenshot


General
Unique ID: 256664555933275848845059875769027203090 (0xC117CB9EE821F34D8E4BE52909991012)
Complete name: Sister.Wives.S18E14.Always.Darkest.Before.Dawn.720p.AMZN.WEB-DL.DDP2.0.H.264-NTb.mkv
Format: Matroska
Format version: Version 4
File size: 1.68 GiB
Duration: 42 min 38 s
Overall bit rate: 5 632 kb/s
Frame rate: 29.970 FPS
Writing application: mkvmerge v78.0 ('Running') 64-bit
Writing library: libebml v1.4.4 + libmatroska v1.7.1

Video
ID: 1
Format: AVC
Format/Info: Advanced Video Codec
Format profile: [email protected]
Format settings: CABAC / 4 Ref Frames
Format settings, CABAC: Yes
Format settings, Reference frames: 4 frames
Codec ID: V_MPEG4/ISO/AVC
Duration: 42 min 38 s
Bit rate mode: Constant
Bit rate: 5 406 kb/s
Nominal bit rate: 6 000 kb/s
Width: 1 280 pixels
Height: 720 pixels
Display aspect ratio: 16:9
Frame rate mode: Constant
Frame rate: 29.970 (30000/1001) FPS
Color space: YUV
Chroma subsampling: 4:2:0
Bit depth: 8 bits
Scan type: Progressive
Bits/(Pixel*Frame): 0.196
Stream size: 1.61 GiB (96%)
Default: Yes
Forced: No
Color range: Limited
Color primaries: BT.709
Transfer characteristics: BT.709
Matrix coefficients: BT.709

Audio
ID: 2
Format: E-AC-3
Format/Info: Enhanced AC-3
Commercial name: Dolby Digital Plus
Codec ID: A_EAC3
Duration: 42 min 38 s
Bit rate mode: Constant
Bit rate: 224 kb/s
Channel(s): 2 channels
Channel layout: L R
Sampling rate: 48.0 kHz
Frame rate: 31.250 FPS (1536 SPF)
Compression mode: Lossy
Stream size: 68.3 MiB (4%)
Language: English (US)
Service kind: Complete Main
Default: Yes
Forced: No

Text #1
ID: 3
Format: UTF-8
Codec ID: S_TEXT/UTF8
Codec ID/Info: UTF-8 Plain Text
Duration: 42 min 35 s
Bit rate: 101 b/s
Frame rate: 0.315 FPS
Count of elements: 805
Stream size: 31.7 KiB (0%)
Language: English (US)
Default: No
Forced: No

Text #2
ID: 4
Format: UTF-8
Codec ID: S_TEXT/UTF8
Codec ID/Info: UTF-8 Plain Text
Duration: 42 min 35 s
Bit rate: 104 b/s
Frame rate: 0.330 FPS
Count of elements: 843
Stream size: 32.7 KiB (0%)
Title: SDH
Language: English (US)
Default: No
Forced: No

ssl  EZTV RSS EZTV Status | EZTV API | DMCA: [email protected]