eztv.yt | eztvstatus.org
Search title:  
TV Packs only
 

Baddies East S01E10 1080p WEB-DL AAC2 0 H 264-NTb EZTV

Episode Breakdown
Baddies East
Baddies East TV Show S01E10

Season: 1
Episode: 10
Download Links
     Torrent Download     Magnet Download
     Anonymous Download
Added 20 days ago by eztv (verified).
Tracker Statistics
Seeds: 4
Peers: 0
Stats generated @ 10:34 on 11th Dec 2023
Torrent Info
Torrent File: Baddies.East.S01E10.1080p.WEB-DL.AAC2.0.H.264-NTb[eztv.re].mkv
Torrent Hash: CC6261F7BEC6AFE029A73593F73D93CB3A224C2F
Filesize: 1.98 GB
Released: 20th Nov 2023

File Format: MKV (Matroska)
Resolution: 1920x1080 px
Aspect Ratio: 16:9

Episode Description


Baddies East S01E10 1080p WEB-DL AAC2 0 H 264-NTb EZTV
Baddies East S1E10 Screenshot


General
Unique ID: 309414345456221252178857796088049466441 (0xE8C7090A51C335EB7825C77E53F07C49)
Complete name: Baddies.East.S01E10.1080p.WEB-DL.AAC2.0.H.264-NTb.mkv
Format: Matroska
Format version: Version 4
File size: 1.98 GiB
Duration: 49 min 55 s
Overall bit rate: 5 687 kb/s
Frame rate: 23.976 FPS
Encoded date: 2023-11-20 17:47:15 UTC
Writing application: mkvmerge v65.0.0 ('Too Much') 64-bit
Writing library: libebml v1.4.2 + libmatroska v1.6.4

Video
ID: 1
Format: AVC
Format/Info: Advanced Video Codec
Format profile: High@L4
Format settings: CABAC / 5 Ref Frames
Format settings, CABAC: Yes
Format settings, Reference frames: 5 frames
Codec ID: V_MPEG4/ISO/AVC
Duration: 49 min 55 s
Bit rate: 5 431 kb/s
Width: 1 920 pixels
Height: 1 080 pixels
Display aspect ratio: 16:9
Frame rate mode: Constant
Frame rate: 23.976 (24000/1001) FPS
Color space: YUV
Chroma subsampling: 4:2:0
Bit depth: 8 bits
Scan type: Progressive
Bits/(Pixel*Frame): 0.109
Stream size: 1.89 GiB (96%)
Writing library: x264 core 164 r10 5a9dfdd
Encoding settings: cabac=1 / ref=5 / deblock=1:0:0 / analyse=0x3:0x113 / me=hex / subme=8 / psy=1 / psy_rd=1.00:0.00 / mixed_ref=1 / me_range=16 / chroma_me=1 / trellis=2 / 8x8dct=1 / cqm=0 / deadzone=21,11 / fast_pskip=1 / chroma_qp_offset=-2 / threads=34 / lookahead_threads=5 / sliced_threads=0 / nr=0 / decimate=1 / interlaced=0 / bluray_compat=0 / stitchable=1 / constrained_intra=0 / bframes=3 / b_pyramid=2 / b_adapt=2 / b_bias=0 / direct=3 / weightb=1 / open_gop=0 / weightp=2 / keyint=infinite / keyint_min=23 / scenecut=40 / intra_refresh=0 / rc_lookahead=50 / rc=crf / mbtree=1 / crf=20.0 / qcomp=0.60 / qpmin=5 / qpmax=69 / qpstep=4 / vbv_maxrate=5500 / vbv_bufsize=15000 / crf_max=0.0 / nal_hrd=none / filler=0 / ip_ratio=1.40 / aq=1:1.00
Default: Yes
Forced: No
Color range: Limited
Color primaries: BT.709
Transfer characteristics: BT.709
Matrix coefficients: BT.709

Audio
ID: 2
Format: AAC LC
Format/Info: Advanced Audio Codec Low Complexity
Codec ID: A_AAC-2
Duration: 49 min 55 s
Bit rate: 253 kb/s
Channel(s): 2 channels
Channel layout: L R
Sampling rate: 48.0 kHz
Frame rate: 46.875 FPS (1024 SPF)
Compression mode: Lossy
Stream size: 90.5 MiB (4%)
Language: English
Default: Yes
Forced: No
ssl  EZTV RSS EZTV Status | EZTV API | DMCA: [email protected]