eztv.yt | eztvstatus.org
Search title:  
TV Packs only
 

Taskmaster Champion of Champions S03E01 1080p ALL4 WEB-DL AAC2 0 x264-NTb EZTV

Episode Breakdown
Come Dine Champion of Champions
Come Dine Champion of Champions TV Show S03E01

Season: 3
Episode: 1
Download Links
     Torrent Download     Magnet Download
     Anonymous Download
Added 3 months ago by eztv (verified).
Tracker Statistics
Seeds: 73
Peers: 1
Stats generated @ 15:47 on 25th Apr 2024
Torrent Info
Torrent File: Taskmaster.Champion.of.Champions.S03E01.1080p.ALL4.WEB-DL.AAC2.0.x264-NTb[EZTVx.to].mkv
Torrent Hash: 55581B7F97691A21756A84D305FF3308DACDED0C
Filesize: 1.72 GB
Released: 15th Jan 2024

File Format: MKV (Matroska)
Resolution: 1920x1080 px
Aspect Ratio: 16:9

Episode Description


Taskmaster Champion of Champions S03E01 1080p ALL4 WEB-DL AAC2 0 x264-NTb EZTV
Come Dine Champion of Champions S3E1 Screenshot


General
Unique ID: 61414928425624783220482004991814309564 (0x2E3415C082C0A8E47A74EA0DDA5E96BC)
Complete name: Taskmaster.Champion.of.Champions.S03E01.1080p.ALL4.WEB-DL.AAC2.0.x264-NTb.mkv
Format: Matroska
Format version: Version 4
File size: 1.72 GiB
Duration: 47 min 55 s
Overall bit rate mode: Variable
Overall bit rate: 5 137 kb/s
Frame rate: 25.000 FPS
Writing application: mkvmerge v82.0 ('I'm The President') 64-bit
Writing library: libebml v1.4.5 + libmatroska v1.7.1

Video
ID: 1
Format: AVC
Format/Info: Advanced Video Codec
Format profile: [email protected]
Format settings: CABAC / 4 Ref Frames
Format settings, CABAC: Yes
Format settings, Reference frames: 4 frames
Codec ID: V_MPEG4/ISO/AVC
Duration: 47 min 55 s
Bit rate mode: Variable
Bit rate: 5 000 kb/s
Maximum bit rate: 6 250 kb/s
Width: 1 920 pixels
Height: 1 080 pixels
Display aspect ratio: 16:9
Frame rate mode: Constant
Frame rate: 25.000 FPS
Color space: YUV
Chroma subsampling: 4:2:0
Bit depth: 8 bits
Scan type: Progressive
Bits/(Pixel*Frame): 0.096
Stream size: 1.68 GiB (97%)
Writing library: x264 core 159
Encoding settings: cabac=1 / ref=3 / deblock=1:0:0 / analyse=0x3:0x113 / me=hex / subme=7 / psy=0 / mixed_ref=1 / me_range=16 / chroma_me=1 / trellis=1 / 8x8dct=1 / cqm=0 / deadzone=21,11 / fast_pskip=1 / chroma_qp_offset=0 / threads=32 / lookahead_threads=5 / sliced_threads=0 / nr=0 / decimate=1 / interlaced=tff / bluray_compat=0 / constrained_intra=0 / bframes=3 / b_pyramid=2 / b_adapt=1 / b_bias=0 / direct=1 / weightb=1 / open_gop=0 / weightp=0 / keyint=250 / keyint_min=25 / scenecut=40 / intra_refresh=0 / rc_lookahead=40 / rc=cbr / mbtree=1 / bitrate=5000 / ratetol=1.0 / qcomp=0.60 / qpmin=0 / qpmax=51 / qpstep=4 / vbv_maxrate=5000 / vbv_bufsize=4000 / nal_hrd=none / filler=0 / ip_ratio=1.40 / aq=1:0.00
Default: Yes
Forced: No
Color range: Limited
Color primaries: BT.709
Transfer characteristics: BT.709
Matrix coefficients: BT.709

Audio
ID: 2
Format: AAC LC
Format/Info: Advanced Audio Codec Low Complexity
Codec ID: A_AAC-2
Duration: 47 min 55 s
Bit rate: 128 kb/s
Channel(s): 2 channels
Channel layout: L R
Sampling rate: 48.0 kHz
Frame rate: 46.875 FPS (1024 SPF)
Compression mode: Lossy
Stream size: 43.9 MiB (2%)
Language: English
Default: Yes
Forced: No

Text #1
ID: 3
Format: UTF-8
Codec ID: S_TEXT/UTF8
Codec ID/Info: UTF-8 Plain Text
Duration: 47 min 50 s
Bit rate: 87 b/s
Frame rate: 0.332 FPS
Count of elements: 952
Stream size: 30.8 KiB (0%)
Language: English
Default: No
Forced: No

Text #2
ID: 4
Format: UTF-8
Codec ID: S_TEXT/UTF8
Codec ID/Info: UTF-8 Plain Text
Duration: 47 min 50 s
Bit rate: 88 b/s
Frame rate: 0.332 FPS
Count of elements: 952
Stream size: 31.0 KiB (0%)
Title: SDH
Language: English
Default: No
Forced: No
ssl  EZTV RSS EZTV Status | EZTV API | DMCA: [email protected]