eztv.yt | eztvstatus.org
Search title:  
TV Packs only
 

Monsieur Spade S01E05 720p AMZN WEB-DL DDP5 1 H 264-NTb EZTV

Episode Breakdown
Monsieur Spade
Monsieur Spade TV Show S01E05

Season: 1
Episode: 5
Air Date: 11 February, 2024
Download Links
     Torrent Download     Magnet Download
     Anonymous Download
Added 2 months ago by eztv (verified).
Tracker Statistics
Seeds: 4
Peers: 11
Stats generated @ 19:19 on 21st Apr 2024
Torrent Info
Torrent File: Monsieur.Spade.S01E05.720p.AMZN.WEB-DL.DDP5.1.H.264-NTb[EZTVx.to].mkv
Torrent Hash: 43AE6B3C9358B055AC594CF688EBEA583284FDED
Filesize: 1.53 GB
Released: 12th Feb 2024

File Format: MKV (Matroska)
Resolution: 1280x720 px
Aspect Ratio: 16:9
Alternate Releases S L
Monsieur Spade S01E05 1080p WEB h264-ETHEL 47 15
Monsieur Spade S01E05 XviD-AFG 14 14
Monsieur Spade S01E05 1080p HEVC x265-MeGusta 41 18
Monsieur Spade S01E05 1080p AMZN WEB-DL DDP5 1 H 264-NTb 4 14

Monsieur Spade S01E05 - Episode 5

Summary:

Spade gets more than he bargained for when he questions his eccentric neighbors, and learns more about the boy's mysterious abilities. Teresa continues her investigation alone. Jean-Pierre faces his past and confronts Philippe.



Monsieur Spade S01E05 720p AMZN WEB-DL DDP5 1 H 264-NTb EZTV
Monsieur Spade S1E5 Screenshot


General
Unique ID: 273101145818609970784346851962212201635 (0xCD755E11B7C3873EA283CA8D5ACE34A3)
Complete name: Monsieur.Spade.S01E05.720p.AMZN.WEB-DL.DDP5.1.H.264-NTb.mkv
Format: Matroska
Format version: Version 4
File size: 1.53 GiB
Duration: 53 min 29 s
Overall bit rate: 4 096 kb/s
Frame rate: 23.976 FPS
Writing application: mkvmerge v80.0 ('Roundabout') 64-bit
Writing library: libebml v1.4.4 + libmatroska v1.7.1

Video
ID: 1
Format: AVC
Format/Info: Advanced Video Codec
Format profile: [email protected]
Format settings: CABAC / 4 Ref Frames
Format settings, CABAC: Yes
Format settings, Reference frames: 4 frames
Codec ID: V_MPEG4/ISO/AVC
Duration: 53 min 29 s
Bit rate mode: Constant
Bit rate: 3 454 kb/s
Nominal bit rate: 6 000 kb/s
Width: 1 280 pixels
Height: 688 pixels
Display aspect ratio: 1.85:1
Frame rate mode: Constant
Frame rate: 23.976 (24000/1001) FPS
Color space: YUV
Chroma subsampling: 4:2:0
Bit depth: 8 bits
Scan type: Progressive
Bits/(Pixel*Frame): 0.164
Stream size: 1.29 GiB (84%)
Default: Yes
Forced: No
Color range: Limited
Color primaries: BT.709
Transfer characteristics: BT.709
Matrix coefficients: BT.709

Audio
ID: 2
Format: E-AC-3
Format/Info: Enhanced AC-3
Commercial name: Dolby Digital Plus
Codec ID: A_EAC3
Duration: 53 min 29 s
Bit rate mode: Constant
Bit rate: 640 kb/s
Channel(s): 6 channels
Channel layout: L R C LFE Ls Rs
Sampling rate: 48.0 kHz
Frame rate: 31.250 FPS (1536 SPF)
Compression mode: Lossy
Stream size: 245 MiB (16%)
Language: English (US)
Service kind: Complete Main
Default: Yes
Forced: No

Text #1
ID: 3
Format: UTF-8
Codec ID: S_TEXT/UTF8
Codec ID/Info: UTF-8 Plain Text
Duration: 53 min 18 s
Bit rate: 34 b/s
Frame rate: 0.127 FPS
Count of elements: 407
Stream size: 13.4 KiB (0%)
Language: English (US)
Default: No
Forced: No

Text #2
ID: 4
Format: UTF-8
Codec ID: S_TEXT/UTF8
Codec ID/Info: UTF-8 Plain Text
Duration: 53 min 21 s
Bit rate: 47 b/s
Frame rate: 0.228 FPS
Count of elements: 730
Stream size: 18.4 KiB (0%)
Title: SDH
Language: English (US)
Default: No
Forced: No

ssl  EZTV RSS EZTV Status | EZTV API | DMCA: [email protected]