eztv.yt | eztvstatus.org
Search title:  
TV Packs only
 

Monsieur Spade S01E05 1080p AMZN WEB-DL DDP5 1 H 264-NTb EZTV

Episode Breakdown
Monsieur Spade
Monsieur Spade TV Show S01E05

Season: 1
Episode: 5
Air Date: 11 February, 2024
Download Links
     Torrent Download     Magnet Download
     Anonymous Download
Added 3 months ago by eztv (verified).
Tracker Statistics
Seeds: 2
Peers: 1
Stats generated @ 05:37 on 26th May 2024
Torrent Info
Torrent File: Monsieur.Spade.S01E05.1080p.AMZN.WEB-DL.DDP5.1.H.264-NTb[EZTVx.to].mkv
Torrent Hash: 72402EE757AAC5AE1C508F3D80C9C10636D2B71D
Filesize: 3.02 GB
Released: 12th Feb 2024

File Format: MKV (Matroska)
Resolution: 1920x1080 px
Aspect Ratio: 16:9
Alternate Releases S L
Monsieur Spade S01E05 1080p WEB h264-ETHEL 23 4
Monsieur Spade S01E05 XviD-AFG 11 3
Monsieur Spade S01E05 1080p HEVC x265-MeGusta 21 5
Monsieur Spade S01E05 720p AMZN WEB-DL DDP5 1 H 264-NTb 2 1

Monsieur Spade S01E05 - Episode 5

Summary:

Spade gets more than he bargained for when he questions his eccentric neighbors, and learns more about the boy's mysterious abilities. Teresa continues her investigation alone. Jean-Pierre faces his past and confronts Philippe.



Monsieur Spade S01E05 1080p AMZN WEB-DL DDP5 1 H 264-NTb EZTV
Monsieur Spade S1E5 Screenshot


General
Unique ID: 304254826713281503901299003971210802417 (0xE4E559204D6B7B78BBEEB3D202C774F1)
Complete name: Monsieur.Spade.S01E05.1080p.AMZN.WEB-DL.DDP5.1.H.264-NTb.mkv
Format: Matroska
Format version: Version 4
File size: 3.02 GiB
Duration: 53 min 29 s
Overall bit rate: 8 077 kb/s
Frame rate: 23.976 FPS
Writing application: mkvmerge v80.0 ('Roundabout') 64-bit
Writing library: libebml v1.4.4 + libmatroska v1.7.1

Video
ID: 1
Format: AVC
Format/Info: Advanced Video Codec
Format profile: High@L4
Format settings: CABAC / 4 Ref Frames
Format settings, CABAC: Yes
Format settings, Reference frames: 4 frames
Codec ID: V_MPEG4/ISO/AVC
Duration: 53 min 29 s
Bit rate mode: Constant
Bit rate: 7 435 kb/s
Nominal bit rate: 10 000 kb/s
Width: 1 920 pixels
Height: 1 040 pixels
Display aspect ratio: 1.85:1
Frame rate mode: Constant
Frame rate: 23.976 (24000/1001) FPS
Color space: YUV
Chroma subsampling: 4:2:0
Bit depth: 8 bits
Scan type: Progressive
Bits/(Pixel*Frame): 0.155
Stream size: 2.78 GiB (92%)
Default: Yes
Forced: No
Color range: Limited
Color primaries: BT.709
Transfer characteristics: BT.709
Matrix coefficients: BT.709

Audio
ID: 2
Format: E-AC-3
Format/Info: Enhanced AC-3
Commercial name: Dolby Digital Plus
Codec ID: A_EAC3
Duration: 53 min 29 s
Bit rate mode: Constant
Bit rate: 640 kb/s
Channel(s): 6 channels
Channel layout: L R C LFE Ls Rs
Sampling rate: 48.0 kHz
Frame rate: 31.250 FPS (1536 SPF)
Compression mode: Lossy
Stream size: 245 MiB (8%)
Language: English (US)
Service kind: Complete Main
Default: Yes
Forced: No

Text #1
ID: 3
Format: UTF-8
Codec ID: S_TEXT/UTF8
Codec ID/Info: UTF-8 Plain Text
Duration: 53 min 18 s
Bit rate: 34 b/s
Frame rate: 0.127 FPS
Count of elements: 407
Stream size: 13.4 KiB (0%)
Language: English (US)
Default: No
Forced: No

Text #2
ID: 4
Format: UTF-8
Codec ID: S_TEXT/UTF8
Codec ID/Info: UTF-8 Plain Text
Duration: 53 min 21 s
Bit rate: 47 b/s
Frame rate: 0.228 FPS
Count of elements: 730
Stream size: 18.4 KiB (0%)
Title: SDH
Language: English (US)
Default: No
Forced: No

ssl  EZTV RSS EZTV Status | EZTV API | DMCA: [email protected]