eztv.yt | eztvstatus.org
Search title:  
TV Packs only
 

90 Day The Single Life S04E07 John Tells the Truth 1080p AMZN WEB-DL DDP2 0 H 264-NTb EZTV

Episode Breakdown
90 Day: The Single Life
90 Day: The Single Life TV Show S04E07

Season: 4
Episode: 7
Download Links
     Torrent Download     Magnet Download
     Anonymous Download
Added 2 months ago by eztv (verified).
Tracker Statistics
Seeds: 4
Peers: 0
Stats generated @ 16:51 on 25th Apr 2024
Torrent Info
Torrent File: 90.Day.The.Single.Life.S04E07.John.Tells.the.Truth.1080p.AMZN.WEB-DL.DDP2.0.H.264-NTb[EZTVx.to].mkv
Torrent Hash: 32C56312DDB737C69B070BD0BAF7D1C49442A536
Filesize: 2.86 GB
Released: 15th Feb 2024

File Format: MKV (Matroska)
Resolution: 1920x1080 px
Aspect Ratio: 16:9
Alternate Releases S L
90 Day The Single Life Pillow Talk S04E07 1080p WEB h264-FREQUENCY 4 0
90 Day The Single Life Pillow Talk S04E07 XviD-AFG 1 0
90 Day The Single Life Pillow Talk S04E07 1080p HEVC x265-MeGusta 0 0
90 Day The Single Life S04E07 1080p WEB h264-FREQUENCY 15 1
90 Day The Single Life S04E07 1080p HEVC x265-MeGusta 14 0
90 Day The Single Life S04E07 XviD-AFG 2 0
90 Day The Single Life S04E07 John Tells the Truth 720p AMZN WEB-DL DDP2 0 H 264-NTb 0 1

Episode Description
90 Day The Single Life S04E07 John Tells the Truth 1080p AMZN WEB-DL DDP2 0 H 264-NTb EZTV
90 Day: The Single Life S4E7 Screenshot


General
Unique ID: 97696753639181109737363908301439013305 (0x497FB5D8351410E7EDC76770EC1A91B9)
Complete name: 90.Day.The.Single.Life.S04E07.John.Tells.the.Truth.1080p.AMZN.WEB-DL.DDP2.0.H.264-NTb.mkv
Format: Matroska
Format version: Version 4
File size: 2.86 GiB
Duration: 42 min 38 s
Overall bit rate: 9 619 kb/s
Frame rate: 23.976 FPS
Writing application: mkvmerge v80.0 ('Roundabout') 64-bit
Writing library: libebml v1.4.4 + libmatroska v1.7.1

Video
ID: 1
Format: AVC
Format/Info: Advanced Video Codec
Format profile: High@L4
Format settings: CABAC / 4 Ref Frames
Format settings, CABAC: Yes
Format settings, Reference frames: 4 frames
Codec ID: V_MPEG4/ISO/AVC
Duration: 42 min 38 s
Bit rate mode: Constant
Bit rate: 9 393 kb/s
Nominal bit rate: 10 000 kb/s
Width: 1 920 pixels
Height: 1 080 pixels
Display aspect ratio: 16:9
Frame rate mode: Constant
Frame rate: 23.976 (24000/1001) FPS
Color space: YUV
Chroma subsampling: 4:2:0
Bit depth: 8 bits
Scan type: Progressive
Bits/(Pixel*Frame): 0.189
Stream size: 2.80 GiB (98%)
Default: Yes
Forced: No
Color range: Limited
Color primaries: BT.709
Transfer characteristics: BT.709
Matrix coefficients: BT.709

Audio
ID: 2
Format: E-AC-3
Format/Info: Enhanced AC-3
Commercial name: Dolby Digital Plus
Codec ID: A_EAC3
Duration: 42 min 37 s
Bit rate mode: Constant
Bit rate: 224 kb/s
Channel(s): 2 channels
Channel layout: L R
Sampling rate: 48.0 kHz
Frame rate: 31.250 FPS (1536 SPF)
Compression mode: Lossy
Stream size: 68.3 MiB (2%)
Language: English (US)
Service kind: Complete Main
Default: Yes
Forced: No

Text #1
ID: 3
Format: UTF-8
Codec ID: S_TEXT/UTF8
Codec ID/Info: UTF-8 Plain Text
Duration: 42 min 23 s
Bit rate: 80 b/s
Frame rate: 0.267 FPS
Count of elements: 679
Stream size: 25.1 KiB (0%)
Language: English (US)
Default: No
Forced: No

Text #2
ID: 4
Format: UTF-8
Codec ID: S_TEXT/UTF8
Codec ID/Info: UTF-8 Plain Text
Duration: 42 min 33 s
Bit rate: 88 b/s
Frame rate: 0.285 FPS
Count of elements: 728
Stream size: 27.5 KiB (0%)
Title: SDH
Language: English (US)
Default: No
Forced: No

ssl  EZTV RSS EZTV Status | EZTV API | DMCA: [email protected]