eztv.yt | eztvstatus.org
Search title:  
TV Packs only
 

Dragons Den S20E04 1080p iP WEB-DL AAC2 0 H 264-NION EZTV

Episode Breakdown
Dragons' Den
Dragons' Den TV Show S20E04

Season: 20
Episode: 4
Download Links
     Torrent Download     Magnet Download
     Anonymous Download
Added 2 months ago by eztv (verified).
Tracker Statistics
Seeds: 1
Peers: 1
Stats generated @ 04:42 on 26th May 2024
Torrent Info
Torrent File: Dragons.Den.S20E04.1080p.iP.WEB-DL.AAC2.0.H.264-NION[EZTVx.to].mkv
Torrent Hash: F55DDBA3866B0922382510CDA479007C898E541D
Filesize: 2.43 GB
Released: 26th Feb 2024

File Format: MKV (Matroska)
Resolution: 1920x1080 px
Aspect Ratio: 16:9

Episode Description
Dragons Den S20E04 1080p iP WEB-DL AAC2 0 H 264-NION EZTV
Dragons' Den S20E4 Screenshot


General
Unique ID: 326106297813552933238368789188069686114 (0xF555C9D4A9DEC8EC0323C81233FDFB62)
Complete name: Dragons.Den.S20E04.1080p.iP.WEB-DL.AAC2.0.H.264-NION.mkv
Format: Matroska
Format version: Version 4
File size: 2.43 GiB
Duration: 58 min 59 s
Overall bit rate mode: Variable
Overall bit rate: 5 901 kb/s
Frame rate: 50.000 FPS
Movie name: Dragons Den S20E04
Track name/Position: 04
Track name/Total: 14
Description: Aspiring entrepreneurs have one chance to make their dreams come true when they pitch their business idea to five multimillionaire investors. It's make or break time
Released date: 2023-01-26
Encoded date: 2023-03-06 10:25:40 UTC
Writing application: mkvmerge v69.0.0 ('Day And Age') 64-bit
Writing library: libebml v1.4.2 + libmatroska v1.6.4
Comment: NioN
Attachments: Thumbnail
IMDB: tt0443370
SYNOPSIS: Peter Jones, Deborah Meaden, Touker Suleyman, Sara Davies and Steven Bartlett provide some no-nonsense know-how to a new set of cash-craving entrepreneurs. / Tonight, a sparkly party-wear business gets one of the Dragons off their feet. A cleaning product entrepreneur aims to make a positive social impact by turning homes into mini factories. Pop-up board games made from paper and card get the Dragons' competitive juices flowing, and a bedding business entrepreneur hopes their eco-credentials will inspire offers of investment
TMDB: tv/13678
TVDB: 79836

Video
ID: 2
Format: AVC
Format/Info: Advanced Video Codec
Format profile: [email protected]
Format settings: CABAC / 4 Ref Frames
Format settings, CABAC: Yes
Format settings, Reference frames: 4 frames
Codec ID: V_MPEG4/ISO/AVC
Duration: 58 min 59 s
Bit rate mode: Variable
Bit rate: 5 769 kb/s
Maximum bit rate: 12.0 Mb/s
Width: 1 920 pixels
Height: 1 080 pixels
Display aspect ratio: 16:9
Frame rate mode: Constant
Frame rate: 50.000 FPS
Color space: YUV
Chroma subsampling: 4:2:0
Bit depth: 8 bits
Scan type: Progressive
Bits/(Pixel*Frame): 0.056
Stream size: 2.38 GiB (98%)
Language: English
Default: Yes
Forced: No
Color range: Limited
Color primaries: BT.709
Transfer characteristics: BT.709
Matrix coefficients: BT.709

Audio
ID: 1
Format: AAC LC
Format/Info: Advanced Audio Codec Low Complexity
Codec ID: A_AAC-2
Duration: 58 min 59 s
Bit rate: 128 kb/s
Channel(s): 2 channels
Channel layout: L R
Sampling rate: 48.0 kHz
Frame rate: 46.875 FPS (1024 SPF)
Compression mode: Lossy
Stream size: 54.0 MiB (2%)
Language: English
Default: Yes
Forced: No

Text #1
ID: 3
Format: UTF-8
Codec ID: S_TEXT/UTF8
Codec ID/Info: UTF-8 Plain Text
Duration: 58 min 27 s
Bit rate: 111 b/s
Frame rate: 0.318 FPS
Count of elements: 1116
Stream size: 47.7 KiB (0%)
Title: English plain srt
Language: English
Default: No
Forced: No

Text #2
ID: 4
Format: UTF-8
Codec ID: S_TEXT/UTF8
Codec ID/Info: UTF-8 Plain Text
Duration: 58 min 27 s
Bit rate: 247 b/s
Frame rate: 0.318 FPS
Count of elements: 1116
Stream size: 106 KiB (0%)
Title: English srt
Language: English
Default: No
Forced: No
ssl  EZTV RSS EZTV Status | EZTV API | DMCA: [email protected]