eztv.yt | eztvstatus.org
Search title:  
TV Packs only
 

Dragons Den S20E03 1080p iP WEB-DL AAC2 0 H 264-NION EZTV

Episode Breakdown
Dragons' Den
Dragons' Den TV Show S20E03

Season: 20
Episode: 3
Download Links
     Torrent Download     Magnet Download
     Anonymous Download
Added 2 months ago by eztv (verified).
Tracker Statistics
Seeds: 1
Peers: 0
Stats generated @ 05:30 on 26th May 2024
Torrent Info
Torrent File: Dragons.Den.S20E03.1080p.iP.WEB-DL.AAC2.0.H.264-NION[EZTVx.to].mkv
Torrent Hash: 938035D476F64876CB2B8F2BF19E0A51377C1BA0
Filesize: 2.40 GB
Released: 26th Feb 2024

File Format: MKV (Matroska)
Resolution: 1920x1080 px
Aspect Ratio: 16:9

Episode Description
Dragons Den S20E03 1080p iP WEB-DL AAC2 0 H 264-NION EZTV
Dragons' Den S20E3 Screenshot


General
Unique ID: 156662697220856681715974277751585920809 (0x75DC23524DDDBC8012C06AE3B3C45729)
Complete name: Dragons.Den.S20E03.1080p.iP.WEB-DL.AAC2.0.H.264-NION.mkv
Format: Matroska
Format version: Version 4
File size: 2.40 GiB
Duration: 58 min 18 s
Overall bit rate mode: Variable
Overall bit rate: 5 899 kb/s
Frame rate: 50.000 FPS
Movie name: Dragons Den S20E03
Track name/Position: 03
Track name/Total: 14
Description: Aspiring entrepreneurs have one chance to make their dreams come true when they pitch their business idea to five multimillionaire investors. It's make or break time
Released date: 2023-01-19
Encoded date: 2023-03-06 10:34:01 UTC
Writing application: mkvmerge v69.0.0 ('Day And Age') 64-bit
Writing library: libebml v1.4.2 + libmatroska v1.6.4
Comment: NioN
Attachments: Thumbnail
IMDB: tt0443370
SYNOPSIS: More entrepreneurs sweat it out in the Den as they attempt to impress five of the brightest business minds in the country - Peter Jones, Deborah Meaden, Touker Suleyman, Sara Davies and Steven Bartlett. / Tonight, a refillable fragrance company gets the DragonsG creative juices flowing, and a mother-and-son team hope their Mumbai-inspired chutney business will give the investors an appetite to spend. A businessman turned inventor believes heG s found a way to bring rowing onto dryland, and a green-fingered entrepreneur hopes to sow the seeds of success with his accessible gardening enterprise
TMDB: tv/13678
TVDB: 79836

Video
ID: 2
Format: AVC
Format/Info: Advanced Video Codec
Format profile: [email protected]
Format settings: CABAC / 4 Ref Frames
Format settings, CABAC: Yes
Format settings, Reference frames: 4 frames
Codec ID: V_MPEG4/ISO/AVC
Duration: 58 min 18 s
Bit rate mode: Variable
Bit rate: 5 767 kb/s
Maximum bit rate: 12.0 Mb/s
Width: 1 920 pixels
Height: 1 080 pixels
Display aspect ratio: 16:9
Frame rate mode: Constant
Frame rate: 50.000 FPS
Color space: YUV
Chroma subsampling: 4:2:0
Bit depth: 8 bits
Scan type: Progressive
Bits/(Pixel*Frame): 0.056
Stream size: 2.35 GiB (98%)
Language: English
Default: Yes
Forced: No
Color range: Limited
Color primaries: BT.709
Transfer characteristics: BT.709
Matrix coefficients: BT.709

Audio
ID: 1
Format: AAC LC
Format/Info: Advanced Audio Codec Low Complexity
Codec ID: A_AAC-2
Duration: 58 min 18 s
Bit rate: 128 kb/s
Channel(s): 2 channels
Channel layout: L R
Sampling rate: 48.0 kHz
Frame rate: 46.875 FPS (1024 SPF)
Compression mode: Lossy
Stream size: 53.4 MiB (2%)
Language: English
Default: Yes
Forced: No

Text #1
ID: 3
Format: UTF-8
Codec ID: S_TEXT/UTF8
Codec ID/Info: UTF-8 Plain Text
Duration: 57 min 46 s
Bit rate: 122 b/s
Frame rate: 0.333 FPS
Count of elements: 1156
Stream size: 51.7 KiB (0%)
Title: English plain srt
Language: English
Default: No
Forced: No

Text #2
ID: 4
Format: UTF-8
Codec ID: S_TEXT/UTF8
Codec ID/Info: UTF-8 Plain Text
Duration: 57 min 46 s
Bit rate: 275 b/s
Frame rate: 0.333 FPS
Count of elements: 1156
Stream size: 117 KiB (0%)
Title: English srt
Language: English
Default: No
Forced: No
ssl  EZTV RSS EZTV Status | EZTV API | DMCA: [email protected]