eztv.yt | eztvstatus.org
Search title:  
TV Packs only
 

Infidele S02E04 FRENCH 1080p STAN WEB-DL AAC2 0 H 264-playWEB EZTV

Episode Breakdown
Izmeny
Izmeny TV Show S02E04

Season: 2
Episode: 4
Download Links
     Torrent Download     Magnet Download
     Anonymous Download
Added 2 months ago by eztv (verified).
Tracker Statistics
Seeds: 0
Peers: 0
Stats generated @ 05:10 on 26th May 2024
Torrent Info
Torrent File: Infidele.S02E04.FRENCH.1080p.STAN.WEB-DL.AAC2.0.H.264-playWEB[EZTVx.to].mkv
Torrent Hash: 120C23A2533B19BA36387781184FA99F47A58FD8
Filesize: 1.22 GB
Released: 10th Mar 2024

File Format: MKV (Matroska)
Resolution: 1920x1080 px
Aspect Ratio: 16:9

Episode Description
Infidele S02E04 FRENCH 1080p STAN WEB-DL AAC2 0 H 264-playWEB EZTV
Izmeny S2E4 Screenshot


General
Unique ID: 98867511242332411892762024564529993688 (0x4A6130A6A631DFE860D5F3495E3E97D8)
Complete name: Infidele.S02E04.FRENCH.1080p.STAN.WEB-DL.AAC2.0.H.264-playWEB.mkv
Format: Matroska
Format version: Version 4
File size: 1.22 GiB
Duration: 49 min 12 s
Overall bit rate: 3 543 kb/s
Frame rate: 25.000 FPS
Encoded date: 2023-01-15 05:08:24 UTC
Writing application: mkvmerge v72.0.0 ('Minuano (Six-eight)') 64-bit
Writing library: libebml v1.4.4 + libmatroska v1.7.1

Video
ID: 1
Format: AVC
Format/Info: Advanced Video Codec
Format profile: High@L4
Format settings: CABAC / 4 Ref Frames
Format settings, CABAC: Yes
Format settings, Reference frames: 4 frames
Codec ID: V_MPEG4/ISO/AVC
Duration: 49 min 12 s
Bit rate: 3 415 kb/s
Width: 1 920 pixels
Height: 1 080 pixels
Display aspect ratio: 16:9
Frame rate mode: Constant
Frame rate: 25.000 FPS
Color space: YUV
Chroma subsampling: 4:2:0
Bit depth: 8 bits
Scan type: Progressive
Bits/(Pixel*Frame): 0.066
Stream size: 1.17 GiB (96%)
Language: French
Default: Yes
Forced: No
Color range: Limited
Color primaries: BT.709
Transfer characteristics: BT.709
Matrix coefficients: BT.709

Audio
ID: 2
Format: AAC LC
Format/Info: Advanced Audio Codec Low Complexity
Codec ID: A_AAC-2
Duration: 49 min 11 s
Bit rate: 126 kb/s
Channel(s): 2 channels
Channel layout: L R
Sampling rate: 44.1 kHz
Frame rate: 43.066 FPS (1024 SPF)
Compression mode: Lossy
Stream size: 44.2 MiB (4%)
Language: French-x-main
Default: Yes
Forced: No
ssl  EZTV RSS EZTV Status | EZTV API | DMCA: [email protected]