eztv.yt | eztvstatus.org
Search title:  
TV Packs only
 

Burning Flames S01E09 2024 1080p WEB-DL H264 AAC-HHWEB EZTV

Episode Breakdown
Burning Flame
Burning Flame TV Show S01E09

Season: 1
Episode: 9
Air Date: 15 March, 2024
Download Links
     Torrent Download     Magnet Download
     Anonymous Download
Added 2 months ago by eztv (verified).
Tracker Statistics
Seeds: 1
Peers: 4
Stats generated @ 04:44 on 26th May 2024
Torrent Info
Torrent File: Burning.Flames.S01E09.2024.1080p.WEB-DL.H264.AAC-HHWEB[EZTVx.to].mkv
Torrent Hash: A1402CA9FCC69F77EE30CFA07BBB78D27BB7149A
Filesize: 793 MB
Released: 15th Mar 2024

File Format: MKV (Matroska)
Resolution: 1920x1080 px
Aspect Ratio: 16:9

Burning Flame S01E09 - Episode 9

Summary:
Burning Flames S01E09 2024 1080p WEB-DL H264 AAC-HHWEB EZTV
Burning Flame S1E9 Screenshot


General
Unique ID: 159461568888186914937929566272883795493 (0x77F72E594C2D45C55587F339E0B02625)
Complete name: Burning.Flames.S01E09.2024.1080p.WEB-DL.H264.AAC-HHWEB.mkv
Format: Matroska
Format version: Version 4
File size: 793 MiB
Duration: 41 min 50 s
Overall bit rate: 2 649 kb/s
Frame rate: 25.000 FPS
Encoded date: 2024-03-15 10:51:11 UTC
Writing application: mkvmerge v78.0 ('Running') 64-bit
Writing library: libebml v1.4.4 + libmatroska v1.7.1 / Lavf60.10.100

Video
ID: 1
Format: AVC
Format/Info: Advanced Video Codec
Format profile: High@L4
Format settings: CABAC / 3 Ref Frames
Format settings, CABAC: Yes
Format settings, Reference frames: 3 frames
Codec ID: V_MPEG4/ISO/AVC
Duration: 41 min 49 s
Bit rate: 2 455 kb/s
Width: 1 920 pixels
Height: 800 pixels
Display aspect ratio: 2.40:1
Frame rate mode: Constant
Frame rate: 25.000 FPS
Color space: YUV
Chroma subsampling: 4:2:0
Bit depth: 8 bits
Scan type: Progressive
Bits/(Pixel*Frame): 0.064
Stream size: 734 MiB (93%)
Language: Chinese (CH)
Default: Yes
Forced: No
Color range: Limited
Color primaries: BT.709
Transfer characteristics: BT.709
Matrix coefficients: BT.709

Audio
ID: 2
Format: AAC LC
Format/Info: Advanced Audio Codec Low Complexity
Codec ID: A_AAC-2
Duration: 41 min 50 s
Bit rate: 192 kb/s
Channel(s): 2 channels
Channel layout: L R
Sampling rate: 44.1 kHz
Frame rate: 43.066 FPS (1024 SPF)
Compression mode: Lossy
Stream size: 57.5 MiB (7%)
Default: No
Forced: No
ssl  EZTV RSS EZTV Status | EZTV API | DMCA: [email protected]