eztv.yt | eztvstatus.org
Search title:  
TV Packs only
 

Coma S01E02 720p WEB-DL AAC2 0 H 264-NTb EZTV

Episode Breakdown
Coma
Coma TV Show S01E02

Season: 1
Episode: 2
Air Date: 19 March, 2024
Download Links
     Torrent Download     Magnet Download
     Anonymous Download
Added 2 months ago by eztv (verified).
Tracker Statistics
Seeds: 9
Peers: 0
Stats generated @ 15:36 on 27th May 2024
Torrent Info
Torrent File: Coma S01E02 720p WEB-DL AAC2 0 H 264-NTb[EZTVx.to].mkv
Torrent Hash: 74C88877FEE6DDA2610202EF9DA8227CC7150FCB
Filesize: 942 MB
Released: 21st Mar 2024

File Format: MKV (Matroska)
Resolution: 1280x720 px
Aspect Ratio: 16:9
Alternate Releases S L
Coma S01E02 1080p WEB H264-CBFM 2 3

Coma S01E02 - Episode 2

Summary:

Jordan Franklin remains in a coma. Meanwhile Simon is hailed a local hero and has no choice but to keep up the lie, however uncomfortable it makes him feel. And as with all lies, the tangled web starts to unravel.

DS Evans begins her investigation into the assault, while Simon's wife, Beth, notices a change in his behaviour and starts to develop her own suspicions.

Then there's the next-door neighbour, Harry - an old reclusive man who hardly says two words to anyone. Unknown to Simon – or indeed to anyone – Harry is the sole witness to the attack. Simon's last hope is Harry's possible dementia. Does Harry even know what he saw? This is put to the test when Simon is forced to chaperone Harry's interview with DS Evans.

Jordan's father, Paul Franklin, a career criminal with a history of extreme violence, doesn't trust the police to find the culprit and begins his own investigation. He enlists Simon's help, organising a vigil in the search for the truth. After all, Simon is the man he believes saved his son's life.

Later that night, Paul pays Simon a visit, sure he has found a way to get into his CCTV. But Beth kicks Paul out.

The following day, a terrified Simon ventures to the hospital to give his login details to Paul…



Coma S01E02 720p WEB-DL AAC2 0 H 264-NTb EZTV
Coma S1E2 Screenshot


General
Unique ID: 173319080797367004374672811778243370566 (0x82640A6F84A5BC2477F43F0F807D1E46)
Complete name: Coma S01E02 720p WEB-DL AAC2 0 H 264-NTb.mkv
Format: Matroska
Format version: Version 4
File size: 942 MiB
Duration: 45 min 37 s
Overall bit rate: 2 886 kb/s
Frame rate: 25.000 FPS
Encoded date: 2024-03-21 18:00:35 UTC
Writing application: mkvmerge v83.0 ('Circle Of Friends') 64-bit
Writing library: libebml v1.4.5 + libmatroska v1.7.1

Video
ID: 1
Format: AVC
Format/Info: Advanced Video Codec
Format profile: [email protected]
Format settings: CABAC / 4 Ref Frames
Format settings, CABAC: Yes
Format settings, Reference frames: 4 frames
Codec ID: V_MPEG4/ISO/AVC
Duration: 45 min 37 s
Bit rate mode: Constant
Bit rate: 2 800 kb/s
Width: 1 280 pixels
Height: 720 pixels
Display aspect ratio: 16:9
Frame rate mode: Constant
Frame rate: 25.000 FPS
Color space: YUV
Chroma subsampling: 4:2:0
Bit depth: 8 bits
Scan type: Progressive
Bits/(Pixel*Frame): 0.122
Stream size: 909 MiB (97%)
Default: Yes
Forced: No
Color range: Limited

Audio
ID: 2
Format: AAC LC
Format/Info: Advanced Audio Codec Low Complexity
Codec ID: A_AAC-2
Duration: 45 min 37 s
Bit rate: 96.0 kb/s
Channel(s): 2 channels
Channel layout: L R
Sampling rate: 48.0 kHz
Frame rate: 46.875 FPS (1024 SPF)
Compression mode: Lossy
Stream size: 31.3 MiB (3%)
Language: English
Default: Yes
Forced: No

Text
ID: 3
Format: UTF-8
Codec ID: S_TEXT/UTF8
Codec ID/Info: UTF-8 Plain Text
Duration: 44 min 51 s
Bit rate: 65 b/s
Frame rate: 0.257 FPS
Count of elements: 692
Stream size: 21.4 KiB (0%)
Language: English
Default: Yes
Forced: No
ssl  EZTV RSS EZTV Status | EZTV API | DMCA: [email protected]