eztv.yt | eztvstatus.org
Search title:  
TV Packs only
 

Simple Days S01E20 2024 1080p WEB-DL H264 AAC-HHWEB EZTV

Episode Breakdown
Simple Days
Simple Days TV Show S01E20

Season: 1
Episode: 20
Air Date: 23 March, 2024
Download Links
     Torrent Download     Magnet Download
     Anonymous Download
Added 2 months ago by eztv (verified).
Tracker Statistics
Seeds: 0
Peers: 0
Stats generated @ 14:43 on 27th May 2024
Torrent Info
Torrent File: Simple.Days.S01E20.2024.1080p.WEB-DL.H264.AAC-HHWEB[EZTVx.to].mkv
Torrent Hash: 3819CB6CE65B60A38EEEE63E1CBD155235DE28FB
Filesize: 395 MB
Released: 24th Mar 2024

File Format: MKV (Matroska)
Resolution: 1920x1080 px
Aspect Ratio: 16:9

Simple Days S01E20 - Episode 20

Summary:
Simple Days S01E20 2024 1080p WEB-DL H264 AAC-HHWEB EZTV
Simple Days S1E20 Screenshot


General
Unique ID: 212300070299684640540847435790070381581 (0x9FB7819A2957FA8700374D10C008FC0D)
Complete name: Simple.Days.S01E20.2024.1080p.WEB-DL.H264.AAC-HHWEB.mkv
Format: Matroska
Format version: Version 4
File size: 395 MiB
Duration: 46 min 19 s
Overall bit rate: 1 192 kb/s
Frame rate: 25.000 FPS
Encoded date: 2024-03-23 11:27:29 UTC
Writing application: mkvmerge v78.0 ('Running') 64-bit
Writing library: libebml v1.4.4 + libmatroska v1.7.1

Video
ID: 1
Format: AVC
Format/Info: Advanced Video Codec
Format profile: High@L4
Format settings: CABAC / 4 Ref Frames
Format settings, CABAC: Yes
Format settings, Reference frames: 4 frames
Codec ID: V_MPEG4/ISO/AVC
Duration: 46 min 19 s
Bit rate: 1 097 kb/s
Width: 1 920 pixels
Height: 800 pixels
Display aspect ratio: 2.40:1
Frame rate mode: Constant
Frame rate: 25.000 FPS
Color space: YUV
Chroma subsampling: 4:2:0
Bit depth: 8 bits
Scan type: Progressive
Bits/(Pixel*Frame): 0.029
Stream size: 363 MiB (92%)
Language: Chinese (CH)
Default: Yes
Forced: No
Color range: Limited
Color primaries: BT.709
Transfer characteristics: BT.709
Matrix coefficients: BT.709

Audio
ID: 2
Format: AAC LC
Format/Info: Advanced Audio Codec Low Complexity
Codec ID: A_AAC-2
Duration: 46 min 19 s
Bit rate: 93.4 kb/s
Channel(s): 2 channels
Channel layout: L R
Sampling rate: 48.0 kHz
Frame rate: 46.875 FPS (1024 SPF)
Compression mode: Lossy
Stream size: 30.9 MiB (8%)
Title: zh-ch [AAC 2.0]
Language: Chinese (CH)
Default: Yes
Forced: No
ssl  EZTV RSS EZTV Status | EZTV API | DMCA: [email protected]