eztv.yt | eztvstatus.org
Search title:  
TV Packs only
 

Curb Your Enthusiasm S12E09 Ken-Kendra 1080p MAX WEB-DL DDP5 1 x264-NTb EZTV

Episode Breakdown
Curb Your Enthusiasm
Curb Your Enthusiasm TV Show S12E09

Season: 12
Episode: 9
Air Date: 31 March, 2024
Download Links
     Torrent Download     Magnet Download
     Anonymous Download
Added 1 month ago by eztv (verified).
Tracker Statistics
Seeds: 17
Peers: 0
Stats generated @ 15:45 on 27th May 2024
Torrent Info
Torrent File: Curb.Your.Enthusiasm.S12E09.Ken-Kendra.1080p.MAX.WEB-DL.DDP5.1.x264-NTb[EZTVx.to].mkv
Torrent Hash: F4430CD49276F6DC1143035BCC4AED5E13BE0532
Filesize: 1.26 GB
Released: 1st Apr 2024

File Format: MKV (Matroska)
Resolution: 1920x1080 px
Aspect Ratio: 16:9
Alternate Releases S L
Curb Your Enthusiasm S12E09 1080p WEB h264-ETHEL 178 4
Curb Your Enthusiasm S12E09 1080p HEVC x265-MeGusta 81 8
Curb Your Enthusiasm S12E09 Ken-Kendra 720p AMZN WEB-DL DDP5 1 H 264-NTb 23 2
Curb Your Enthusiasm S12E09 Ken-Kendra 1080p AMZN WEB-DL DDP5 1 H 264-NTb 16 1
Curb Your Enthusiasm S12E09 Ken-Kendra 720p MAX WEB-DL DDP5 1 x264-NTb 22 1
Curb Your Enthusiasm S12E09 XviD-AFG 6 1

Curb Your Enthusiasm S12E09 - Ken/Kendra

Summary:

A misunderstanding with Cheryl's masseuse threatens Larry's image, then public perception of him sinks even lower when he gives the wrong person Covid-19.



Curb Your Enthusiasm S12E09 Ken-Kendra 1080p MAX WEB-DL DDP5 1 x264-NTb EZTV
Curb Your Enthusiasm S12E9 Screenshot


General
Unique ID: 179042148342360038723779319748248102276 (0x86B243736CD36CE43CF2AEB8BBF26584)
Complete name: Curb.Your.Enthusiasm.S12E09.Ken-Kendra.1080p.MAX.WEB-DL.DDP5.1.x264-NTb.mkv
Format: Matroska
Format version: Version 4
File size: 1.26 GiB
Duration: 34 min 31 s
Overall bit rate mode: Variable
Overall bit rate: 5 225 kb/s
Frame rate: 23.976 FPS
Writing application: mkvmerge v81.0 ('Milliontown') 64-bit
Writing library: libebml v1.4.4 + libmatroska v1.7.1

Video
ID: 1
Format: AVC
Format/Info: Advanced Video Codec
Format profile: [email protected]
Format settings: CABAC / 4 Ref Frames
Format settings, CABAC: Yes
Format settings, Reference frames: 4 frames
Codec ID: V_MPEG4/ISO/AVC
Duration: 34 min 31 s
Bit rate mode: Variable
Bit rate: 4 582 kb/s
Maximum bit rate: 10 000 kb/s
Width: 1 920 pixels
Height: 1 080 pixels
Display aspect ratio: 16:9
Frame rate mode: Constant
Frame rate: 23.976 (24000/1001) FPS
Color space: YUV
Chroma subsampling: 4:2:0
Bit depth: 8 bits
Scan type: Progressive
Bits/(Pixel*Frame): 0.092
Stream size: 1.11 GiB (88%)
Writing library: x264 core 164
Encoding settings: cabac=1 / ref=4 / deblock=1:0:0 / analyse=0x3:0x133 / me=umh / subme=10 / psy=1 / psy_rd=1.00:0.00 / mixed_ref=1 / me_range=24 / chroma_me=1 / trellis=2 / 8x8dct=1 / cqm=0 / deadzone=21,11 / fast_pskip=1 / chroma_qp_offset=-2 / threads=24 / lookahead_threads=2 / sliced_threads=0 / nr=0 / decimate=1 / interlaced=0 / bluray_compat=0 / stitchable=1 / constrained_intra=0 / bframes=3 / b_pyramid=2 / b_adapt=2 / b_bias=0 / direct=3 / weightb=1 / open_gop=0 / weightp=2 / keyint=96 / keyint_min=49 / scenecut=0 / intra_refresh=0 / rc_lookahead=96 / rc=crf / mbtree=1 / crf=20.0 / qcomp=0.60 / qpmin=0 / qpmax=69 / qpstep=4 / vbv_maxrate=10000 / vbv_bufsize=40000 / crf_max=0.0 / nal_hrd=vbr / filler=0 / ip_ratio=1.40 / aq=1:1.00
Default: Yes
Forced: No
Color range: Limited
Color primaries: BT.709
Transfer characteristics: BT.709
Matrix coefficients: BT.709

Audio
ID: 2
Format: E-AC-3
Format/Info: Enhanced AC-3
Commercial name: Dolby Digital Plus
Codec ID: A_EAC3
Duration: 34 min 31 s
Bit rate mode: Constant
Bit rate: 640 kb/s
Channel(s): 6 channels
Channel layout: L R C LFE Ls Rs
Sampling rate: 48.0 kHz
Frame rate: 31.250 FPS (1536 SPF)
Compression mode: Lossy
Stream size: 158 MiB (12%)
Language: English
Service kind: Complete Main
Default: Yes
Forced: No

Text #1
ID: 3
Format: UTF-8
Codec ID: S_TEXT/UTF8
Codec ID/Info: UTF-8 Plain Text
Duration: 33 min 4 s
Bit rate: 139 b/s
Frame rate: 0.473 FPS
Count of elements: 939
Stream size: 33.7 KiB (0%)
Language: English (US)
Default: No
Forced: No

Text #2
ID: 4
Format: UTF-8
Codec ID: S_TEXT/UTF8
Codec ID/Info: UTF-8 Plain Text
Duration: 34 min 23 s
Bit rate: 148 b/s
Frame rate: 0.470 FPS
Count of elements: 970
Stream size: 37.3 KiB (0%)
Title: SDH
Language: English (US)
Default: No
Forced: No

Text #3
ID: 5
Format: UTF-8
Codec ID: S_TEXT/UTF8
Codec ID/Info: UTF-8 Plain Text
Duration: 33 min 6 s
Bit rate: 130 b/s
Frame rate: 0.483 FPS
Count of elements: 960
Stream size: 31.7 KiB (0%)
Language: Spanish (Latin America)
Default: No
Forced: No

Text #4
ID: 6
Format: UTF-8
Codec ID: S_TEXT/UTF8
Codec ID/Info: UTF-8 Plain Text
Duration: 34 min 23 s
Bit rate: 138 b/s
Frame rate: 0.480 FPS
Count of elements: 990
Stream size: 34.8 KiB (0%)
Title: SDH
Language: Spanish (Latin America)
Default: No
Forced: No

Menu
00:00:00.000: Chapter 1
00:11:04.205: Chapter 2
00:21:41.800: Chapter 3
00:33:18.413: Credits
00:34:31.486: Chapter 4

ssl  EZTV RSS EZTV Status | EZTV API | DMCA: [email protected]