eztv.yt | eztvstatus.org
Search title:  
TV Packs only
 

Shgun 2024 S01E07 A Stick of Time 1080p DSNP WEB-DL DDP5 1 H 264-NTb EZTV

Episode Breakdown
Shogun
Shogun TV Show S01E07

Season: 1
Episode: 7
Air Date: 2 April, 2024
Download Links
     Torrent Download     Magnet Download
     Anonymous Download
Added 1 month ago by eztv (verified).
Tracker Statistics
Seeds: 6
Peers: 2
Stats generated @ 04:49 on 26th May 2024
Torrent Info
Torrent File: Shgun 2024 S01E07 A Stick of Time 1080p DSNP WEB-DL DDP5 1 H 264-NTb[EZTVx.to].mkv
Torrent Hash: BB9B7FD48646EAC6E01FE40FB9CD651F4CE5A59B
Filesize: 2.66 GB
Released: 2nd Apr 2024

File Format: MKV (Matroska)
Resolution: 1920x1080 px
Aspect Ratio: 16:9
Alternate Releases S L
Shogun 2024 S01E07 1080p WEB H264-SuccessfulCrab 1,126 275
Shogun 2024 S01E07 1080p HEVC x265-MeGusta 323 45
Shogun S01E07 A Stick of Time 1080p DSNP WEB-DL DDP5 1 H 264-FLUX 49 9
Shogun 2024 S01E07 A Stick of Time REPACK 1080p DSNP WEB-DL DDP5 1 H 264-FLUX 210 13
Shogun 2024 S01E07 A Stick of Time 720p DSNP WEB-DL DD 5 1 H 264-playWEB 99 15
Shōgun 2024 S01E07 A Stick of Time 1080p DSNP WEB-DL DDP5 1 H 264-NTb 1 54
Shogun 2024 S01E07 MULTI 1080p WEB H264-HiggsBoson 23 3

Shogun S01E07 - Chapter Seven: A Stick of Time

Summary:

Outplayed by new alliances in Osaka, Toranaga is forced to carve out a new deal with a long lost family member.



Shgun 2024 S01E07 A Stick of Time 1080p DSNP WEB-DL DDP5 1 H 264-NTb EZTV
Shogun S1E7 Screenshot


General
Unique ID: 275613765504175464062358147562167263329 (0xCF5947C8C07E6389906FFBF2875EE061)
Complete name: Shgun 2024 S01E07 A Stick of Time 1080p DSNP WEB-DL DDP5 1 H 264-NTb.mkv
Format: Matroska
Format version: Version 4
File size: 2.66 GiB
Duration: 54 min 30 s
Overall bit rate mode: Variable
Overall bit rate: 6 976 kb/s
Frame rate: 24.000 FPS
Writing application: mkvmerge v81.0 ('Milliontown') 64-bit
Writing library: libebml v1.4.4 + libmatroska v1.7.1

Video
ID: 1
Format: AVC
Format/Info: Advanced Video Codec
Format profile: High@L4
Format settings: CABAC / 4 Ref Frames
Format settings, CABAC: Yes
Format settings, Reference frames: 4 frames
Codec ID: V_MPEG4/ISO/AVC
Duration: 54 min 30 s
Bit rate mode: Variable
Bit rate: 6 715 kb/s
Maximum bit rate: 12.7 Mb/s
Width: 1 920 pixels
Height: 1 080 pixels
Display aspect ratio: 16:9
Frame rate mode: Constant
Frame rate: 24.000 FPS
Color space: YUV
Chroma subsampling: 4:2:0
Bit depth: 8 bits
Scan type: Progressive
Bits/(Pixel*Frame): 0.135
Time code of first frame: 00:00:00:0000000000
Stream size: 2.56 GiB (96%)
Default: Yes
Forced: No
Color range: Limited
Color primaries: BT.709
Transfer characteristics: BT.709
Matrix coefficients: BT.709

Audio
ID: 2
Format: E-AC-3
Format/Info: Enhanced AC-3
Commercial name: Dolby Digital Plus
Codec ID: A_EAC3
Duration: 54 min 30 s
Bit rate mode: Constant
Bit rate: 256 kb/s
Channel(s): 6 channels
Channel layout: L R C LFE Ls Rs
Sampling rate: 48.0 kHz
Frame rate: 31.250 FPS (1536 SPF)
Compression mode: Lossy
Stream size: 99.8 MiB (4%)
Language: English
Service kind: Complete Main
Default: Yes
Forced: No

Text #1
ID: 3
Format: UTF-8
Codec ID: S_TEXT/UTF8
Codec ID/Info: UTF-8 Plain Text
Duration: 52 min 20 s
Bit rate: 33 b/s
Frame rate: 0.138 FPS
Count of elements: 432
Stream size: 13.0 KiB (0%)
Title: Forced
Language: English
Default: Yes
Forced: Yes

Text #2
ID: 4
Format: UTF-8
Codec ID: S_TEXT/UTF8
Codec ID/Info: UTF-8 Plain Text
Duration: 52 min 22 s
Bit rate: 39 b/s
Frame rate: 0.155 FPS
Count of elements: 486
Stream size: 15.1 KiB (0%)
Language: English
Default: No
Forced: No

Text #3
ID: 5
Format: UTF-8
Codec ID: S_TEXT/UTF8
Codec ID/Info: UTF-8 Plain Text
Duration: 52 min 25 s
Bit rate: 44 b/s
Frame rate: 0.181 FPS
Count of elements: 568
Stream size: 17.2 KiB (0%)
Title: SDH
Language: English
Default: No
Forced: No

Text #4
ID: 6
Format: UTF-8
Codec ID: S_TEXT/UTF8
Codec ID/Info: UTF-8 Plain Text
Duration: 54 min 10 s
Bit rate: 42 b/s
Frame rate: 0.143 FPS
Count of elements: 464
Stream size: 16.9 KiB (0%)
Language: Czech
Default: No
Forced: No

Text #5
ID: 7
Format: UTF-8
Codec ID: S_TEXT/UTF8
Codec ID/Info: UTF-8 Plain Text
Duration: 54 min 10 s
Bit rate: 38 b/s
Frame rate: 0.149 FPS
Count of elements: 485
Stream size: 15.1 KiB (0%)
Language: Danish
Default: No
Forced: No

Text #6
ID: 8
Format: UTF-8
Codec ID: S_TEXT/UTF8
Codec ID/Info: UTF-8 Plain Text
Duration: 54 min 10 s
Bit rate: 44 b/s
Frame rate: 0.148 FPS
Count of elements: 480
Stream size: 17.7 KiB (0%)
Language: German
Default: No
Forced: No

Text #7
ID: 9
Format: UTF-8
Codec ID: S_TEXT/UTF8
Codec ID/Info: UTF-8 Plain Text
Duration: 54 min 10 s
Bit rate: 69 b/s
Frame rate: 0.147 FPS
Count of elements: 477
Stream size: 27.6 KiB (0%)
Language: Greek
Default: No
Forced: No

Text #8
ID: 10
Format: UTF-8
Codec ID: S_TEXT/UTF8
Codec ID/Info: UTF-8 Plain Text
Duration: 54 min 10 s
Bit rate: 39 b/s
Frame rate: 0.146 FPS
Count of elements: 474
Stream size: 15.7 KiB (0%)
Title: Spanish (Latin America)
Language: Spanish (Latin America)
Default: No
Forced: No

Text #9
ID: 11
Format: UTF-8
Codec ID: S_TEXT/UTF8
Codec ID/Info: UTF-8 Plain Text
Duration: 54 min 10 s
Bit rate: 40 b/s
Frame rate: 0.147 FPS
Count of elements: 477
Stream size: 16.2 KiB (0%)
Title: Spanish (Spain)
Language: Spanish (ES)
Default: No
Forced: No

Text #10
ID: 12
Format: UTF-8
Codec ID: S_TEXT/UTF8
Codec ID/Info: UTF-8 Plain Text
Duration: 54 min 10 s
Bit rate: 40 b/s
Frame rate: 0.144 FPS
Count of elements: 467
Stream size: 16.0 KiB (0%)
Language: Finnish
Default: No
Forced: No

Text #11
ID: 13
Format: UTF-8
Codec ID: S_TEXT/UTF8
Codec ID/Info: UTF-8 Plain Text
Duration: 54 min 10 s
Bit rate: 43 b/s
Frame rate: 0.144 FPS
Count of elements: 469
Stream size: 17.1 KiB (0%)
Language: French (FR)
Default: No
Forced: No

Text #12
ID: 14
Format: UTF-8
Codec ID: S_TEXT/UTF8
Codec ID/Info: UTF-8 Plain Text
Duration: 54 min 10 s
Bit rate: 42 b/s
Frame rate: 0.147 FPS
Count of elements: 478
Stream size: 16.9 KiB (0%)
Language: Hungarian
Default: No
Forced: No

Text #13
ID: 15
Format: UTF-8
Codec ID: S_TEXT/UTF8
Codec ID/Info: UTF-8 Plain Text
Duration: 54 min 10 s
Bit rate: 39 b/s
Frame rate: 0.147 FPS
Count of elements: 479
Stream size: 15.8 KiB (0%)
Language: Italian
Default: No
Forced: No

Text #14
ID: 16
Format: UTF-8
Codec ID: S_TEXT/UTF8
Codec ID/Info: UTF-8 Plain Text
Duration: 52 min 25 s
Bit rate: 56 b/s
Frame rate: 0.192 FPS
Count of elements: 603
Stream size: 21.7 KiB (0%)
Language: Japanese
Default: No
Forced: No

Text #15
ID: 17
Format: UTF-8
Codec ID: S_TEXT/UTF8
Codec ID/Info: UTF-8 Plain Text
Duration: 52 min 25 s
Bit rate: 60 b/s
Frame rate: 0.197 FPS
Count of elements: 618
Stream size: 23.3 KiB (0%)
Title: SDH
Language: Japanese
Default: No
Forced: No

Text #16
ID: 18
Format: UTF-8
Codec ID: S_TEXT/UTF8
Codec ID/Info: UTF-8 Plain Text
Duration: 54 min 10 s
Bit rate: 48 b/s
Frame rate: 0.149 FPS
Count of elements: 485
Stream size: 19.2 KiB (0%)
Language: Korean
Default: No
Forced: No

Text #17
ID: 19
Format: UTF-8
Codec ID: S_TEXT/UTF8
Codec ID/Info: UTF-8 Plain Text
Duration: 54 min 10 s
Bit rate: 40 b/s
Frame rate: 0.124 FPS
Count of elements: 404
Stream size: 16.0 KiB (0%)
Language: Dutch
Default: No
Forced: No

Text #18
ID: 20
Format: UTF-8
Codec ID: S_TEXT/UTF8
Codec ID/Info: UTF-8 Plain Text
Duration: 54 min 10 s
Bit rate: 37 b/s
Frame rate: 0.147 FPS
Count of elements: 479
Stream size: 14.7 KiB (0%)
Language: Norwegian
Default: No
Forced: No

Text #19
ID: 21
Format: UTF-8
Codec ID: S_TEXT/UTF8
Codec ID/Info: UTF-8 Plain Text
Duration: 54 min 10 s
Bit rate: 40 b/s
Frame rate: 0.146 FPS
Count of elements: 474
Stream size: 16.1 KiB (0%)
Language: Polish
Default: No
Forced: No

Text #20
ID: 22
Format: UTF-8
Codec ID: S_TEXT/UTF8
Codec ID/Info: UTF-8 Plain Text
Duration: 54 min 10 s
Bit rate: 38 b/s
Frame rate: 0.144 FPS
Count of elements: 469
Stream size: 15.3 KiB (0%)
Title: Portuguese (Brazil)
Language: Portuguese (BR)
Default: No
Forced: No

Text #21
ID: 23
Format: UTF-8
Codec ID: S_TEXT/UTF8
Codec ID/Info: UTF-8 Plain Text
Duration: 54 min 10 s
Bit rate: 40 b/s
Frame rate: 0.149 FPS
Count of elements: 485
Stream size: 16.0 KiB (0%)
Title: Portuguese (Portugal)
Language: Portuguese (PT)
Default: No
Forced: No

Text #22
ID: 24
Format: UTF-8
Codec ID: S_TEXT/UTF8
Codec ID/Info: UTF-8 Plain Text
Duration: 54 min 10 s
Bit rate: 40 b/s
Frame rate: 0.128 FPS
Count of elements: 417
Stream size: 16.1 KiB (0%)
Language: Romanian
Default: No
Forced: No

Text #23
ID: 25
Format: UTF-8
Codec ID: S_TEXT/UTF8
Codec ID/Info: UTF-8 Plain Text
Duration: 54 min 10 s
Bit rate: 38 b/s
Frame rate: 0.148 FPS
Count of elements: 481
Stream size: 15.2 KiB (0%)
Language: Slovak
Default: No
Forced: No

Text #24
ID: 26
Format: UTF-8
Codec ID: S_TEXT/UTF8
Codec ID/Info: UTF-8 Plain Text
Duration: 54 min 10 s
Bit rate: 38 b/s
Frame rate: 0.138 FPS
Count of elements: 450
Stream size: 15.3 KiB (0%)
Language: Swedish
Default: No
Forced: No

Text #25
ID: 27
Format: UTF-8
Codec ID: S_TEXT/UTF8
Codec ID/Info: UTF-8 Plain Text
Duration: 54 min 10 s
Bit rate: 41 b/s
Frame rate: 0.149 FPS
Count of elements: 483
Stream size: 16.3 KiB (0%)
Language: Turkish
Default: No
Forced: No

Text #26
ID: 28
Format: UTF-8
Codec ID: S_TEXT/UTF8
Codec ID/Info: UTF-8 Plain Text
Duration: 54 min 10 s
Bit rate: 35 b/s
Frame rate: 0.149 FPS
Count of elements: 485
Stream size: 14.3 KiB (0%)
Language: Chinese (Traditional)
Default: No
Forced: No
ssl  EZTV RSS EZTV Status | EZTV API | DMCA: [email protected]