eztv.yt | eztvstatus.org
Search title:  
TV Packs only
 

The Neighborhood S06E06 Welcome to the Walkout 1080p AMZN WEB-DL DDP5 1 H 264-NTb EZTV

Episode Breakdown
The Neighborhood
The Neighborhood TV Show S06E06

Season: 6
Episode: 6
Air Date: 1 April, 2024
Download Links
     Torrent Download     Magnet Download
     Anonymous Download
Added 2 months ago by eztv (verified).
Tracker Statistics
Seeds: 0
Peers: 0
Stats generated @ 05:27 on 19th Jun 2024
Torrent Info
Torrent File: e1ced96d14a44bfebdc5f159bc856b42[EZTVx.to].mkv
Torrent Hash: B956DD55DA35A9401305ABA1787D642F7A9E6721
Filesize: 1.49 GB
Released: 2nd Apr 2024

File Format: MKV (Matroska)
Resolution: 1920x1080 px
Aspect Ratio: 16:9
Alternate Releases S L
The Neighborhood S06E06 720p HEVC x265-MeGusta 13 2
The Neighborhood S06E06 720p HDTV x264-SYNCOPY 10 1
The Neighborhood S06E06 480p x264-mSD 6 2
The Neighborhood S06E06 1080p WEB h264-ETHEL 26 3
The Neighborhood S06E06 1080p HEVC x265-MeGusta 5 2
The Neighborhood S06E06 1080p x265-ELiTE 6 0
The Neighborhood S06E06 720p x264-FENiX 9 2

The Neighborhood S06E06 - Welcome to the Walkout

Summary:

While Gemma is holding a fundraiser for a new school pool, Tina and the other teachers are being overworked. Meanwhile, Dave convinces Calvin to finally commit to doing physical therapy for his knee.



The Neighborhood S06E06 Welcome to the Walkout 1080p AMZN WEB-DL DDP5 1 H 264-NTb EZTV
The Neighborhood S6E6 Screenshot


General
Unique ID: 58621804599129358106716138953379006928 (0x2C1A261D77D7B7A7887D4C821221C9D0)
Complete name: e1ced96d14a44bfebdc5f159bc856b42.mkv
Format: Matroska
Format version: Version 4
File size: 1.49 GiB
Duration: 21 min 25 s
Overall bit rate: 9 947 kb/s
Frame rate: 23.976 FPS
Writing application: mkvmerge v81.0 ('Milliontown') 64-bit
Writing library: libebml v1.4.4 + libmatroska v1.7.1

Video
ID: 1
Format: AVC
Format/Info: Advanced Video Codec
Format profile: High@L4
Format settings: CABAC / 4 Ref Frames
Format settings, CABAC: Yes
Format settings, Reference frames: 4 frames
Codec ID: V_MPEG4/ISO/AVC
Duration: 21 min 25 s
Bit rate mode: Constant
Bit rate: 9 305 kb/s
Nominal bit rate: 10 000 kb/s
Width: 1 920 pixels
Height: 1 080 pixels
Display aspect ratio: 16:9
Frame rate mode: Constant
Frame rate: 23.976 (24000/1001) FPS
Color space: YUV
Chroma subsampling: 4:2:0
Bit depth: 8 bits
Scan type: Progressive
Bits/(Pixel*Frame): 0.187
Stream size: 1.39 GiB (94%)
Default: Yes
Forced: No
Color range: Limited
Color primaries: BT.709
Transfer characteristics: BT.709
Matrix coefficients: BT.709

Audio
ID: 2
Format: E-AC-3
Format/Info: Enhanced AC-3
Commercial name: Dolby Digital Plus
Codec ID: A_EAC3
Duration: 21 min 25 s
Bit rate mode: Constant
Bit rate: 640 kb/s
Channel(s): 6 channels
Channel layout: L R C LFE Ls Rs
Sampling rate: 48.0 kHz
Frame rate: 31.250 FPS (1536 SPF)
Compression mode: Lossy
Stream size: 98.1 MiB (6%)
Language: English (US)
Service kind: Complete Main
Default: Yes
Forced: No

Text #1
ID: 3
Format: UTF-8
Codec ID: S_TEXT/UTF8
Codec ID/Info: UTF-8 Plain Text
Duration: 20 min 58 s
Bit rate: 98 b/s
Frame rate: 0.413 FPS
Count of elements: 520
Stream size: 15.1 KiB (0%)
Language: English (US)
Default: No
Forced: No

Text #2
ID: 4
Format: UTF-8
Codec ID: S_TEXT/UTF8
Codec ID/Info: UTF-8 Plain Text
Duration: 20 min 58 s
Bit rate: 101 b/s
Frame rate: 0.432 FPS
Count of elements: 543
Stream size: 15.6 KiB (0%)
Title: SDH
Language: English (US)
Default: No
Forced: No

ssl  EZTV RSS EZTV Status | EZTV API | DMCA: [email protected]