eztv.yt | eztvstatus.org
Search title:  
TV Packs only
 

Loot S02E01 Space for Everyone 1080p ATVP WEB-DL DDP5 1 Atmos H 264-FLUX EZTV

Episode Breakdown
Loot
Loot TV Show S02E01

Season: 2
Episode: 1
Air Date: 3 April, 2024
Download Links
     Torrent Download     Magnet Download
     Anonymous Download
Added 1 month ago by eztv (verified).
Tracker Statistics
Seeds: 4
Peers: 2
Stats generated @ 05:16 on 26th May 2024
Torrent Info
Torrent File: Loot S02E01 Space for Everyone 1080p ATVP WEB-DL DDP5 1 Atmos H 264-FLUX[EZTVx.to].mkv
Torrent Hash: 5B25EC406180D4C57993451BAAA248775ABFF939
Filesize: 2.04 GB
Released: 3rd Apr 2024

File Format: MKV (Matroska)
Resolution: 1920x1080 px
Aspect Ratio: 16:9
Alternate Releases S L
Loot S02E01 1080p WEB h264-ETHEL 84 16
Loot S02E01 MULTI 1080p WEB H264-HiggsBoson 1 2
Loot S02E01 1080p HEVC x265-MeGusta 36 12
Loot S02E01 Space for Everyone 720p ATVP WEB-DL DDP5 1 Atmos H 264-FLUX 6 0
Loot S02E01 XviD-AFG 11 3
Loot S02E01 Space for Everyone 1080p ATVP WEB-DL DDP5 1 H 264-NTb 7 1

Loot S02E01 - Space for Everyone

Summary:

Molly and the Wells Foundation team struggle to live up to her promise to donate the entirety of her vast fortune. Arthur has a new lease on life.



Loot S02E01 Space for Everyone 1080p ATVP WEB-DL DDP5 1 Atmos H 264-FLUX EZTV
Loot S2E1 Screenshot


General
Unique ID: 327431664403290347254591589613863266021 (0xF6550B72DE0318A71D712101053966E5)
Complete name: Loot S02E01 Space for Everyone 1080p ATVP WEB-DL DDP5 1 Atmos H 264-FLUX.mkv
Format: Matroska
Format version: Version 4
File size: 2.04 GiB
Duration: 27 min 1 s
Overall bit rate: 10.8 Mb/s
Frame rate: 23.976 FPS
Writing application: mkvmerge v82.0 ('I'm The President') 64-bit
Writing library: libebml v1.4.5 + libmatroska v1.7.1

Video
ID: 1
Format: AVC
Format/Info: Advanced Video Codec
Format profile: High@L4
Format settings: CABAC / 4 Ref Frames
Format settings, CABAC: Yes
Format settings, Reference frames: 4 frames
Codec ID: V_MPEG4/ISO/AVC
Duration: 27 min 1 s
Bit rate: 10.0 Mb/s
Width: 1 920 pixels
Height: 960 pixels
Display aspect ratio: 2.000
Frame rate mode: Constant
Frame rate: 23.976 (24000/1001) FPS
Color space: YUV
Chroma subsampling: 4:2:0
Bit depth: 8 bits
Scan type: Progressive
Bits/(Pixel*Frame): 0.226
Stream size: 1.89 GiB (93%)
Language: English
Default: Yes
Forced: No
Color range: Limited
Color primaries: BT.709
Transfer characteristics: BT.709
Matrix coefficients: BT.709

Audio
ID: 2
Format: E-AC-3 JOC
Format/Info: Enhanced AC-3 with Joint Object Coding
Commercial name: Dolby Digital Plus with Dolby Atmos
Codec ID: A_EAC3
Duration: 27 min 1 s
Bit rate mode: Constant
Bit rate: 768 kb/s
Channel(s): 6 channels
Channel layout: L R C LFE Ls Rs
Sampling rate: 48.0 kHz
Frame rate: 31.250 FPS (1536 SPF)
Compression mode: Lossy
Stream size: 148 MiB (7%)
Language: English
Service kind: Complete Main
Default: Yes
Forced: No
Complexity index: 16
Number of dynamic objects: 15
Bed channel count: 1 channel
Bed channel configuration: LFE

Text #1
ID: 3
Format: UTF-8
Codec ID: S_TEXT/UTF8
Codec ID/Info: UTF-8 Plain Text
Duration: 25 min 35 s
Bit rate: 97 b/s
Frame rate: 0.302 FPS
Count of elements: 464
Stream size: 18.2 KiB (0%)
Language: English
Default: No
Forced: No

Text #2
ID: 4
Format: UTF-8
Codec ID: S_TEXT/UTF8
Codec ID/Info: UTF-8 Plain Text
Duration: 25 min 44 s
Bit rate: 104 b/s
Frame rate: 0.322 FPS
Count of elements: 497
Stream size: 19.7 KiB (0%)
Title: SDH
Language: English
Default: No
Forced: No

Text #3
ID: 5
Format: UTF-8
Codec ID: S_TEXT/UTF8
Codec ID/Info: UTF-8 Plain Text
Duration: 26 min 32 s
Bit rate: 148 b/s
Frame rate: 0.308 FPS
Count of elements: 491
Stream size: 28.8 KiB (0%)
Language: Arabic
Default: No
Forced: No

Text #4
ID: 6
Format: UTF-8
Codec ID: S_TEXT/UTF8
Codec ID/Info: UTF-8 Plain Text
Duration: 26 min 32 s
Bit rate: 132 b/s
Frame rate: 0.237 FPS
Count of elements: 377
Stream size: 25.7 KiB (0%)
Language: Bulgarian
Default: No
Forced: No

Text #5
ID: 7
Format: UTF-8
Codec ID: S_TEXT/UTF8
Codec ID/Info: UTF-8 Plain Text
Duration: 26 min 32 s
Bit rate: 82 b/s
Frame rate: 0.308 FPS
Count of elements: 491
Stream size: 16.1 KiB (0%)
Title: Simplified
Language: Chinese (Simplified)
Default: No
Forced: No

Text #6
ID: 8
Format: UTF-8
Codec ID: S_TEXT/UTF8
Codec ID/Info: UTF-8 Plain Text
Duration: 26 min 32 s
Bit rate: 89 b/s
Frame rate: 0.309 FPS
Count of elements: 492
Stream size: 17.5 KiB (0%)
Title: Traditional
Language: Chinese (Traditional)
Default: No
Forced: No

Text #7
ID: 9
Format: UTF-8
Codec ID: S_TEXT/UTF8
Codec ID/Info: UTF-8 Plain Text
Duration: 26 min 32 s
Bit rate: 84 b/s
Frame rate: 0.283 FPS
Count of elements: 451
Stream size: 16.5 KiB (0%)
Language: Czech
Default: No
Forced: No

Text #8
ID: 10
Format: UTF-8
Codec ID: S_TEXT/UTF8
Codec ID/Info: UTF-8 Plain Text
Duration: 26 min 32 s
Bit rate: 97 b/s
Frame rate: 0.268 FPS
Count of elements: 427
Stream size: 19.0 KiB (0%)
Language: Danish
Default: No
Forced: No

Text #9
ID: 11
Format: UTF-8
Codec ID: S_TEXT/UTF8
Codec ID/Info: UTF-8 Plain Text
Duration: 25 min 48 s
Bit rate: 93 b/s
Frame rate: 0.263 FPS
Count of elements: 407
Stream size: 17.7 KiB (0%)
Language: German
Default: No
Forced: No

Text #10
ID: 12
Format: UTF-8
Codec ID: S_TEXT/UTF8
Codec ID/Info: UTF-8 Plain Text
Duration: 26 min 32 s
Bit rate: 154 b/s
Frame rate: 0.292 FPS
Count of elements: 465
Stream size: 30.1 KiB (0%)
Language: Greek
Default: No
Forced: No

Text #11
ID: 13
Format: UTF-8
Codec ID: S_TEXT/UTF8
Codec ID/Info: UTF-8 Plain Text
Duration: 26 min 32 s
Bit rate: 96 b/s
Frame rate: 0.306 FPS
Count of elements: 487
Stream size: 18.8 KiB (0%)
Title: Latin American
Language: Spanish (Latin America)
Default: No
Forced: No

Text #12
ID: 14
Format: UTF-8
Codec ID: S_TEXT/UTF8
Codec ID/Info: UTF-8 Plain Text
Duration: 26 min 32 s
Bit rate: 99 b/s
Frame rate: 0.303 FPS
Count of elements: 483
Stream size: 19.3 KiB (0%)
Language: Spanish (ES)
Default: No
Forced: No

Text #13
ID: 15
Format: UTF-8
Codec ID: S_TEXT/UTF8
Codec ID/Info: UTF-8 Plain Text
Duration: 26 min 32 s
Bit rate: 86 b/s
Frame rate: 0.276 FPS
Count of elements: 440
Stream size: 16.9 KiB (0%)
Language: Estonian
Default: No
Forced: No

Text #14
ID: 16
Format: UTF-8
Codec ID: S_TEXT/UTF8
Codec ID/Info: UTF-8 Plain Text
Duration: 26 min 32 s
Bit rate: 86 b/s
Frame rate: 0.271 FPS
Count of elements: 432
Stream size: 16.8 KiB (0%)
Language: Finnish
Default: No
Forced: No

Text #15
ID: 17
Format: UTF-8
Codec ID: S_TEXT/UTF8
Codec ID/Info: UTF-8 Plain Text
Duration: 25 min 59 s
Bit rate: 89 b/s
Frame rate: 0.299 FPS
Count of elements: 467
Stream size: 17.1 KiB (0%)
Title: Canadian
Language: French (CA)
Default: No
Forced: No

Text #16
ID: 18
Format: UTF-8
Codec ID: S_TEXT/UTF8
Codec ID/Info: UTF-8 Plain Text
Duration: 25 min 59 s
Bit rate: 89 b/s
Frame rate: 0.299 FPS
Count of elements: 466
Stream size: 17.1 KiB (0%)
Language: French (FR)
Default: No
Forced: No

Text #17
ID: 19
Format: UTF-8
Codec ID: S_TEXT/UTF8
Codec ID/Info: UTF-8 Plain Text
Duration: 26 min 32 s
Bit rate: 143 b/s
Frame rate: 0.308 FPS
Count of elements: 491
Stream size: 27.9 KiB (0%)
Language: Hebrew
Default: No
Forced: No

Text #18
ID: 20
Format: UTF-8
Codec ID: S_TEXT/UTF8
Codec ID/Info: UTF-8 Plain Text
Duration: 26 min 32 s
Bit rate: 268 b/s
Frame rate: 0.309 FPS
Count of elements: 492
Stream size: 52.2 KiB (0%)
Language: Hindi
Default: No
Forced: No

Text #19
ID: 21
Format: UTF-8
Codec ID: S_TEXT/UTF8
Codec ID/Info: UTF-8 Plain Text
Duration: 26 min 32 s
Bit rate: 100 b/s
Frame rate: 0.309 FPS
Count of elements: 492
Stream size: 19.5 KiB (0%)
Language: Hungarian
Default: No
Forced: No

Text #20
ID: 22
Format: UTF-8
Codec ID: S_TEXT/UTF8
Codec ID/Info: UTF-8 Plain Text
Duration: 26 min 32 s
Bit rate: 102 b/s
Frame rate: 0.308 FPS
Count of elements: 490
Stream size: 20.0 KiB (0%)
Language: Indonesian
Default: No
Forced: No

Text #21
ID: 23
Format: UTF-8
Codec ID: S_TEXT/UTF8
Codec ID/Info: UTF-8 Plain Text
Duration: 26 min 23 s
Bit rate: 99 b/s
Frame rate: 0.309 FPS
Count of elements: 489
Stream size: 19.1 KiB (0%)
Language: Italian
Default: No
Forced: No

Text #22
ID: 24
Format: UTF-8
Codec ID: S_TEXT/UTF8
Codec ID/Info: UTF-8 Plain Text
Duration: 26 min 38 s
Bit rate: 73 b/s
Frame rate: 0.292 FPS
Count of elements: 466
Stream size: 14.4 KiB (0%)
Language: Japanese
Default: No
Forced: No

Text #23
ID: 25
Format: UTF-8
Codec ID: S_TEXT/UTF8
Codec ID/Info: UTF-8 Plain Text
Duration: 26 min 32 s
Bit rate: 113 b/s
Frame rate: 0.309 FPS
Count of elements: 492
Stream size: 22.1 KiB (0%)
Language: Korean
Default: No
Forced: No

Text #24
ID: 26
Format: UTF-8
Codec ID: S_TEXT/UTF8
Codec ID/Info: UTF-8 Plain Text
Duration: 26 min 32 s
Bit rate: 99 b/s
Frame rate: 0.308 FPS
Count of elements: 491
Stream size: 19.3 KiB (0%)
Language: Lithuanian
Default: No
Forced: No

Text #25
ID: 27
Format: UTF-8
Codec ID: S_TEXT/UTF8
Codec ID/Info: UTF-8 Plain Text
Duration: 26 min 32 s
Bit rate: 97 b/s
Frame rate: 0.305 FPS
Count of elements: 485
Stream size: 18.9 KiB (0%)
Language: Latvian
Default: No
Forced: No

Text #26
ID: 28
Format: UTF-8
Codec ID: S_TEXT/UTF8
Codec ID/Info: UTF-8 Plain Text
Duration: 26 min 32 s
Bit rate: 95 b/s
Frame rate: 0.308 FPS
Count of elements: 490
Stream size: 18.5 KiB (0%)
Language: Malay
Default: No
Forced: No

Text #27
ID: 29
Format: UTF-8
Codec ID: S_TEXT/UTF8
Codec ID/Info: UTF-8 Plain Text
Duration: 26 min 32 s
Bit rate: 80 b/s
Frame rate: 0.229 FPS
Count of elements: 365
Stream size: 15.7 KiB (0%)
Language: Dutch
Default: No
Forced: No

Text #28
ID: 30
Format: UTF-8
Codec ID: S_TEXT/UTF8
Codec ID/Info: UTF-8 Plain Text
Duration: 26 min 32 s
Bit rate: 88 b/s
Frame rate: 0.234 FPS
Count of elements: 372
Stream size: 17.2 KiB (0%)
Language: Norwegian
Default: No
Forced: No

Text #29
ID: 31
Format: UTF-8
Codec ID: S_TEXT/UTF8
Codec ID/Info: UTF-8 Plain Text
Duration: 26 min 32 s
Bit rate: 93 b/s
Frame rate: 0.303 FPS
Count of elements: 483
Stream size: 18.2 KiB (0%)
Language: Polish
Default: No
Forced: No

Text #30
ID: 32
Format: UTF-8
Codec ID: S_TEXT/UTF8
Codec ID/Info: UTF-8 Plain Text
Duration: 26 min 32 s
Bit rate: 91 b/s
Frame rate: 0.304 FPS
Count of elements: 484
Stream size: 17.8 KiB (0%)
Language: Portuguese
Default: No
Forced: No

Text #31
ID: 33
Format: UTF-8
Codec ID: S_TEXT/UTF8
Codec ID/Info: UTF-8 Plain Text
Duration: 26 min 32 s
Bit rate: 88 b/s
Frame rate: 0.293 FPS
Count of elements: 466
Stream size: 17.3 KiB (0%)
Title: Brazilian
Language: Portuguese (BR)
Default: No
Forced: No

Text #32
ID: 34
Format: UTF-8
Codec ID: S_TEXT/UTF8
Codec ID/Info: UTF-8 Plain Text
Duration: 26 min 32 s
Bit rate: 151 b/s
Frame rate: 0.304 FPS
Count of elements: 484
Stream size: 29.4 KiB (0%)
Language: Russian
Default: No
Forced: No

Text #33
ID: 35
Format: UTF-8
Codec ID: S_TEXT/UTF8
Codec ID/Info: UTF-8 Plain Text
Duration: 26 min 32 s
Bit rate: 90 b/s
Frame rate: 0.305 FPS
Count of elements: 486
Stream size: 17.6 KiB (0%)
Language: Slovak
Default: No
Forced: No

Text #34
ID: 36
Format: UTF-8
Codec ID: S_TEXT/UTF8
Codec ID/Info: UTF-8 Plain Text
Duration: 26 min 32 s
Bit rate: 75 b/s
Frame rate: 0.295 FPS
Count of elements: 470
Stream size: 14.7 KiB (0%)
Language: Slovenian
Default: No
Forced: No

Text #35
ID: 37
Format: UTF-8
Codec ID: S_TEXT/UTF8
Codec ID/Info: UTF-8 Plain Text
Duration: 26 min 32 s
Bit rate: 86 b/s
Frame rate: 0.269 FPS
Count of elements: 428
Stream size: 16.8 KiB (0%)
Language: Swedish
Default: No
Forced: No

Text #36
ID: 38
Format: UTF-8
Codec ID: S_TEXT/UTF8
Codec ID/Info: UTF-8 Plain Text
Duration: 26 min 32 s
Bit rate: 312 b/s
Frame rate: 0.308 FPS
Count of elements: 491
Stream size: 60.8 KiB (0%)
Language: Tamil
Default: No
Forced: No

Text #37
ID: 39
Format: UTF-8
Codec ID: S_TEXT/UTF8
Codec ID/Info: UTF-8 Plain Text
Duration: 26 min 32 s
Bit rate: 290 b/s
Frame rate: 0.308 FPS
Count of elements: 491
Stream size: 56.5 KiB (0%)
Language: Telugu
Default: No
Forced: No

Text #38
ID: 40
Format: UTF-8
Codec ID: S_TEXT/UTF8
Codec ID/Info: UTF-8 Plain Text
Duration: 26 min 32 s
Bit rate: 234 b/s
Frame rate: 0.308 FPS
Count of elements: 491
Stream size: 45.5 KiB (0%)
Language: Thai
Default: No
Forced: No

Text #39
ID: 41
Format: UTF-8
Codec ID: S_TEXT/UTF8
Codec ID/Info: UTF-8 Plain Text
Duration: 26 min 32 s
Bit rate: 96 b/s
Frame rate: 0.293 FPS
Count of elements: 466
Stream size: 18.8 KiB (0%)
Language: Turkish
Default: No
Forced: No

Text #40
ID: 42
Format: UTF-8
Codec ID: S_TEXT/UTF8
Codec ID/Info: UTF-8 Plain Text
Duration: 26 min 32 s
Bit rate: 138 b/s
Frame rate: 0.309 FPS
Count of elements: 492
Stream size: 26.9 KiB (0%)
Language: Ukrainian
Default: No
Forced: No

Text #41
ID: 43
Format: UTF-8
Codec ID: S_TEXT/UTF8
Codec ID/Info: UTF-8 Plain Text
Duration: 26 min 32 s
Bit rate: 120 b/s
Frame rate: 0.309 FPS
Count of elements: 492
Stream size: 23.5 KiB (0%)
Language: Vietnamese
Default: No
Forced: No

Text #42
ID: 44
Format: UTF-8
Codec ID: S_TEXT/UTF8
Codec ID/Info: UTF-8 Plain Text
Duration: 26 min 32 s
Bit rate: 77 b/s
Frame rate: 0.309 FPS
Count of elements: 492
Stream size: 15.1 KiB (0%)
Title: Traditional
Language: Cantonese (Hant)
Default: No
Forced: No

Menu
00:00:00.000: en:Studio Logo
00:00:08.963: en:Recap
00:01:43.469: en:Scene 01
00:25:56.750: en:Credits

ssl  EZTV RSS EZTV Status | EZTV API | DMCA: [email protected]