eztv.yt | eztvstatus.org
Search title:  
TV Packs only
 

FBI Most Wanted S05E07 Rendition 1080p AMZN WEB-DL DDP5 1 H 264-FLUX EZTV

Episode Breakdown
FBI: Most Wanted
FBI: Most Wanted TV Show S05E07

Season: 5
Episode: 7
Air Date: 2 April, 2024
Download Links
     Torrent Download     Magnet Download
     Anonymous Download
Added 18 days ago by eztv (verified).
Tracker Statistics
Seeds: 59
Peers: 14
Stats generated @ 19:53 on 21st Apr 2024
Torrent Info
Torrent File: FBI Most Wanted S05E07 Rendition 1080p AMZN WEB-DL DDP5 1 H 264-FLUX[EZTVx.to].mkv
Torrent Hash: 467CEFF14A1A4AD0CE60C75C1561832A864C3D1A
Filesize: 2.38 GB
Released: 3rd Apr 2024

File Format: MKV (Matroska)
Resolution: 1920x1080 px
Aspect Ratio: 16:9
Alternate Releases S L
FBI Most Wanted S05E07 720p HDTV x264-SYNCOPY 93 24
FBI Most Wanted S05E07 480p x264-mSD 34 14
FBI Most Wanted S05E07 720p HEVC x265-MeGusta 40 6
FBI Most Wanted S05E07 XviD-AFG 20 3
FBI Most Wanted S05E07 Rendition 720p AMZN WEB-DL DDP5 1 H 264-FLUX 7 4
FBI Most Wanted S05E07 1080p WEB h264-ETHEL 5 2
FBI Most Wanted S05E07 1080p HEVC x265-MeGusta 41 9

FBI: Most Wanted S05E07 - Rendition

Summary:

The Fugitive Task Force springs into action after four detectives are shot dead during a prisoner exchange outside of a diner in New Jersey. Meanwhile, Remy struggles with having Corey as a roommate.



FBI Most Wanted S05E07 Rendition 1080p AMZN WEB-DL DDP5 1 H 264-FLUX EZTV
FBI: Most Wanted S5E7 Screenshot


General
Unique ID: 257101286465807946335523356244907095166 (0xC16BE81932CE75F6000CE57182C7747E)
Complete name: FBI Most Wanted S05E07 Rendition 1080p AMZN WEB-DL DDP5 1 H 264-FLUX.mkv
Format: Matroska
Format version: Version 4
File size: 2.38 GiB
Duration: 42 min 36 s
Overall bit rate: 7 990 kb/s
Frame rate: 23.976 FPS
Writing application: mkvmerge v82.0 ('I'm The President') 64-bit
Writing library: libebml v1.4.5 + libmatroska v1.7.1

Video
ID: 1
Format: AVC
Format/Info: Advanced Video Codec
Format profile: High@L4
Format settings: CABAC / 4 Ref Frames
Format settings, CABAC: Yes
Format settings, Reference frames: 4 frames
Codec ID: V_MPEG4/ISO/AVC
Duration: 42 min 36 s
Bit rate mode: Constant
Bit rate: 7 347 kb/s
Nominal bit rate: 10 000 kb/s
Width: 1 920 pixels
Height: 1 080 pixels
Display aspect ratio: 16:9
Frame rate mode: Constant
Frame rate: 23.976 (24000/1001) FPS
Color space: YUV
Chroma subsampling: 4:2:0
Bit depth: 8 bits
Scan type: Progressive
Bits/(Pixel*Frame): 0.148
Stream size: 2.19 GiB (92%)
Language: English (US)
Default: Yes
Forced: No
Color range: Limited
Color primaries: BT.709
Transfer characteristics: BT.709
Matrix coefficients: BT.709

Audio
ID: 2
Format: E-AC-3
Format/Info: Enhanced AC-3
Commercial name: Dolby Digital Plus
Codec ID: A_EAC3
Duration: 42 min 36 s
Bit rate mode: Constant
Bit rate: 640 kb/s
Channel(s): 6 channels
Channel layout: L R C LFE Ls Rs
Sampling rate: 48.0 kHz
Frame rate: 31.250 FPS (1536 SPF)
Compression mode: Lossy
Stream size: 195 MiB (8%)
Language: English
Service kind: Complete Main
Default: Yes
Forced: No

Text #1
ID: 3
Format: UTF-8
Codec ID: S_TEXT/UTF8
Codec ID/Info: UTF-8 Plain Text
Duration: 41 min 56 s
Bit rate: 87 b/s
Frame rate: 0.350 FPS
Count of elements: 880
Stream size: 26.8 KiB (0%)
Language: English (US)
Default: No
Forced: No

Text #2
ID: 4
Format: UTF-8
Codec ID: S_TEXT/UTF8
Codec ID/Info: UTF-8 Plain Text
Duration: 42 min 27 s
Bit rate: 90 b/s
Frame rate: 0.385 FPS
Count of elements: 981
Stream size: 28.3 KiB (0%)
Title: SDH
Language: English (US)
Default: No
Forced: No

Menu
00:00:00.000: en:Scene 1
00:42:31.000: en:End Credits

ssl  EZTV RSS EZTV Status | EZTV API | DMCA: [email protected]