eztv.yt | eztvstatus.org
Search title:  
TV Packs only
 

FBI International S03E07 Andiamo 720p AMZN WEB-DL DDP5 1 H 264-FLUX EZTV

Episode Breakdown
FBI: International
FBI: International TV Show S03E07

Season: 3
Episode: 7
Air Date: 2 April, 2024
Download Links
     Torrent Download     Magnet Download
     Anonymous Download
Added 18 days ago by eztv (verified).
Tracker Statistics
Seeds: 11
Peers: 3
Stats generated @ 19:42 on 21st Apr 2024
Torrent Info
Torrent File: FBI International S03E07 Andiamo 720p AMZN WEB-DL DDP5 1 H 264-FLUX[EZTVx.to].mkv
Torrent Hash: 395476F95E7C73917CFF5C9DC867D60565FAC0C3
Filesize: 1.14 GB
Released: 3rd Apr 2024

File Format: MKV (Matroska)
Resolution: 1280x720 px
Aspect Ratio: 16:9
Alternate Releases S L
FBI International S03E07 480p x264-mSD 51 15
FBI International S03E07 720p HEVC x265-MeGusta 60 15
FBI International S03E07 720p HDTV x264-SYNCOPY 18 3
FBI International S03E07 Andiamo 1080p AMZN WEB-DL DDP5 1 H 264-FLUX 32 6
FBI International S03E07 1080p HEVC x265-MeGusta 49 16
FBI International S03E07 1080p WEB h264-ETHEL 4 1
FBI International S03E07 XviD-AFG 23 7

FBI: International S03E07 - Andiamo!

Summary:

The Fly Team heads to the Tuscan countryside after an American couple's son is kidnapped right outside their new home. Concerns are heightened as fingers begin to point to the mafia.



FBI International S03E07 Andiamo 720p AMZN WEB-DL DDP5 1 H 264-FLUX EZTV
FBI: International S3E7 Screenshot


General
Unique ID: 131037180795830927382539827709129157716 (0x6294D7D0F69D42CF74F137F15D266C54)
Complete name: FBI International S03E07 Andiamo 720p AMZN WEB-DL DDP5 1 H 264-FLUX.mkv
Format: Matroska
Format version: Version 4
File size: 1.14 GiB
Duration: 42 min 28 s
Overall bit rate: 3 849 kb/s
Frame rate: 23.976 FPS
Writing application: mkvmerge v82.0 ('I'm The President') 64-bit
Writing library: libebml v1.4.5 + libmatroska v1.7.1

Video
ID: 1
Format: AVC
Format/Info: Advanced Video Codec
Format profile: [email protected]
Format settings: CABAC / 4 Ref Frames
Format settings, CABAC: Yes
Format settings, Reference frames: 4 frames
Codec ID: V_MPEG4/ISO/AVC
Duration: 42 min 28 s
Bit rate mode: Constant
Bit rate: 3 206 kb/s
Nominal bit rate: 6 000 kb/s
Width: 1 280 pixels
Height: 720 pixels
Display aspect ratio: 16:9
Frame rate mode: Constant
Frame rate: 23.976 (24000/1001) FPS
Color space: YUV
Chroma subsampling: 4:2:0
Bit depth: 8 bits
Scan type: Progressive
Bits/(Pixel*Frame): 0.145
Stream size: 974 MiB (83%)
Language: English (US)
Default: Yes
Forced: No
Color range: Limited
Color primaries: BT.709
Transfer characteristics: BT.709
Matrix coefficients: BT.709

Audio
ID: 2
Format: E-AC-3
Format/Info: Enhanced AC-3
Commercial name: Dolby Digital Plus
Codec ID: A_EAC3
Duration: 42 min 28 s
Bit rate mode: Constant
Bit rate: 640 kb/s
Channel(s): 6 channels
Channel layout: L R C LFE Ls Rs
Sampling rate: 48.0 kHz
Frame rate: 31.250 FPS (1536 SPF)
Compression mode: Lossy
Stream size: 194 MiB (17%)
Language: English
Service kind: Complete Main
Default: Yes
Forced: No

Text #1
ID: 3
Format: UTF-8
Codec ID: S_TEXT/UTF8
Codec ID/Info: UTF-8 Plain Text
Duration: 41 min 42 s
Bit rate: 88 b/s
Frame rate: 0.349 FPS
Count of elements: 873
Stream size: 27.1 KiB (0%)
Language: English (US)
Default: No
Forced: No

Text #2
ID: 4
Format: UTF-8
Codec ID: S_TEXT/UTF8
Codec ID/Info: UTF-8 Plain Text
Duration: 42 min 22 s
Bit rate: 92 b/s
Frame rate: 0.372 FPS
Count of elements: 945
Stream size: 28.6 KiB (0%)
Title: SDH
Language: English (US)
Default: No
Forced: No

Menu
00:00:00.000: en:Scene 1
00:42:23.000: en:End Credits

ssl  EZTV RSS EZTV Status | EZTV API | DMCA: [email protected]