eztv.yt | eztvstatus.org
Search title:  
TV Packs only
 

Sugar 2024 S01E07 The Friends You Keep 1080p ATVP WEB-DL DDP5 1 H 264-NTb EZTV

Episode Breakdown
Sugar
Sugar TV Show S01E07

Season: 1
Episode: 7
Air Date: 10 May, 2024
Download Links
     Torrent Download     Magnet Download
     Anonymous Download
Added 1 month ago by eztv (verified).
Tracker Statistics
Seeds: 26
Peers: 16
Stats generated @ 07:09 on 19th Jun 2024
Torrent Info
Torrent File: Sugar 2024 S01E07 The Friends You Keep 1080p ATVP WEB-DL DDP5 1 H 264-NTb[EZTVx.to].mkv
Torrent Hash: 5905C3A2D0566E5D279DDE8EDB45999FC04EB4E6
Filesize: 2.76 GB
Released: 10th May 2024

File Format: MKV (Matroska)
Resolution: 1920x1080 px
Aspect Ratio: 16:9
Alternate Releases S L
Sugar 2024 S01E07 1080p WEB H264-SuccessfulCrab 178 43
Sugar 2024 S01E07 The Friends You Keep 720p ATVP WEB-DL DDP5 1 H 264-NTb 35 30
Sugar 2024 S01E07 1080p HEVC x265-MeGusta 124 55
Sugar 2024 S01E07 The Friends You Keep 1080p ATVP WEB-DL DDP5 1 Atmos H 264-FLUX 11 13

Sugar S01E07 - The Friends You Keep

Summary:

Sugar's fears for the safety of his friends lead him to a clandestine gathering where he learns a dangerous secret—and the truth about Olivia.



Sugar 2024 S01E07 The Friends You Keep 1080p ATVP WEB-DL DDP5 1 H 264-NTb EZTV
Sugar S1E7 Screenshot


General
Unique ID: 113229722924720497741184100545747997173 (0x552F405B96CFE6D243D71E75F957D1F5)
Complete name: Sugar 2024 S01E07 The Friends You Keep 1080p ATVP WEB-DL DDP5 1 H 264-NTb.mkv
Format: Matroska
Format version: Version 4
File size: 2.76 GiB
Duration: 36 min 16 s
Overall bit rate: 10.9 Mb/s
Frame rate: 23.976 FPS
Writing application: mkvmerge v81.0 ('Milliontown') 64-bit
Writing library: libebml v1.4.4 + libmatroska v1.7.1

Video
ID: 1
Format: AVC
Format/Info: Advanced Video Codec
Format profile: High@L4
Format settings: CABAC / 4 Ref Frames
Format settings, CABAC: Yes
Format settings, Reference frames: 4 frames
Codec ID: V_MPEG4/ISO/AVC
Duration: 36 min 16 s
Bit rate: 10.1 Mb/s
Width: 1 920 pixels
Height: 1 080 pixels
Display aspect ratio: 16:9
Frame rate mode: Constant
Frame rate: 23.976 (24000/1001) FPS
Color space: YUV
Chroma subsampling: 4:2:0
Bit depth: 8 bits
Scan type: Progressive
Bits/(Pixel*Frame): 0.203
Stream size: 2.56 GiB (93%)
Default: Yes
Forced: No
Color range: Limited
Color primaries: BT.709
Transfer characteristics: BT.709
Matrix coefficients: BT.709

Audio
ID: 2
Format: E-AC-3 JOC
Format/Info: Enhanced AC-3 with Joint Object Coding
Commercial name: Dolby Digital Plus with Dolby Atmos
Codec ID: A_EAC3
Duration: 36 min 16 s
Bit rate mode: Constant
Bit rate: 768 kb/s
Channel(s): 6 channels
Channel layout: L R C LFE Ls Rs
Sampling rate: 48.0 kHz
Frame rate: 31.250 FPS (1536 SPF)
Compression mode: Lossy
Stream size: 199 MiB (7%)
Language: English
Service kind: Complete Main
Default: Yes
Forced: No
Complexity index: 16
Number of dynamic objects: 15
Bed channel count: 1 channel
Bed channel configuration: LFE

Text #1
ID: 3
Format: UTF-8
Codec ID: S_TEXT/UTF8
Codec ID/Info: UTF-8 Plain Text
Duration: 32 min 53 s
Bit rate: 52 b/s
Frame rate: 0.184 FPS
Count of elements: 364
Stream size: 12.5 KiB (0%)
Language: English
Default: No
Forced: No

Text #2
ID: 4
Format: UTF-8
Codec ID: S_TEXT/UTF8
Codec ID/Info: UTF-8 Plain Text
Duration: 33 min 54 s
Bit rate: 58 b/s
Frame rate: 0.210 FPS
Count of elements: 427
Stream size: 14.6 KiB (0%)
Title: SDH
Language: English
Default: No
Forced: No

Text #3
ID: 5
Format: UTF-8
Codec ID: S_TEXT/UTF8
Codec ID/Info: UTF-8 Plain Text
Duration: 33 min 46 s
Bit rate: 72 b/s
Frame rate: 0.180 FPS
Count of elements: 364
Stream size: 17.9 KiB (0%)
Language: Arabic
Default: No
Forced: No

Text #4
ID: 6
Format: UTF-8
Codec ID: S_TEXT/UTF8
Codec ID/Info: UTF-8 Plain Text
Duration: 33 min 46 s
Bit rate: 70 b/s
Frame rate: 0.146 FPS
Count of elements: 296
Stream size: 17.3 KiB (0%)
Language: Bulgarian
Default: No
Forced: No

Text #5
ID: 7
Format: UTF-8
Codec ID: S_TEXT/UTF8
Codec ID/Info: UTF-8 Plain Text
Duration: 33 min 46 s
Bit rate: 42 b/s
Frame rate: 0.184 FPS
Count of elements: 372
Stream size: 10.5 KiB (0%)
Title: Chinese (Simplified)
Language: Mandarin (Hans)
Default: No
Forced: No

Text #6
ID: 8
Format: UTF-8
Codec ID: S_TEXT/UTF8
Codec ID/Info: UTF-8 Plain Text
Duration: 34 min 59 s
Bit rate: 44 b/s
Frame rate: 0.178 FPS
Count of elements: 373
Stream size: 11.3 KiB (0%)
Title: Chinese (Traditional)
Language: Mandarin (Hant)
Default: No
Forced: No

Text #7
ID: 9
Format: UTF-8
Codec ID: S_TEXT/UTF8
Codec ID/Info: UTF-8 Plain Text
Duration: 33 min 46 s
Bit rate: 44 b/s
Frame rate: 0.168 FPS
Count of elements: 341
Stream size: 11.1 KiB (0%)
Language: Czech
Default: No
Forced: No

Text #8
ID: 10
Format: UTF-8
Codec ID: S_TEXT/UTF8
Codec ID/Info: UTF-8 Plain Text
Duration: 33 min 46 s
Bit rate: 52 b/s
Frame rate: 0.181 FPS
Count of elements: 367
Stream size: 12.9 KiB (0%)
Language: Danish
Default: No
Forced: No

Text #9
ID: 11
Format: UTF-8
Codec ID: S_TEXT/UTF8
Codec ID/Info: UTF-8 Plain Text
Duration: 33 min 18 s
Bit rate: 48 b/s
Frame rate: 0.187 FPS
Count of elements: 373
Stream size: 11.8 KiB (0%)
Language: German
Default: No
Forced: No

Text #10
ID: 12
Format: UTF-8
Codec ID: S_TEXT/UTF8
Codec ID/Info: UTF-8 Plain Text
Duration: 33 min 46 s
Bit rate: 77 b/s
Frame rate: 0.175 FPS
Count of elements: 355
Stream size: 19.1 KiB (0%)
Language: Greek
Default: No
Forced: No

Text #11
ID: 13
Format: UTF-8
Codec ID: S_TEXT/UTF8
Codec ID/Info: UTF-8 Plain Text
Duration: 33 min 46 s
Bit rate: 48 b/s
Frame rate: 0.182 FPS
Count of elements: 368
Stream size: 12.0 KiB (0%)
Title: Spanish (Latin America)
Language: Spanish (Latin America)
Default: No
Forced: No

Text #12
ID: 14
Format: UTF-8
Codec ID: S_TEXT/UTF8
Codec ID/Info: UTF-8 Plain Text
Duration: 33 min 46 s
Bit rate: 46 b/s
Frame rate: 0.181 FPS
Count of elements: 366
Stream size: 11.6 KiB (0%)
Title: Spanish (Spain)
Language: Spanish (ES)
Default: No
Forced: No

Text #13
ID: 15
Format: UTF-8
Codec ID: S_TEXT/UTF8
Codec ID/Info: UTF-8 Plain Text
Duration: 33 min 46 s
Bit rate: 46 b/s
Frame rate: 0.173 FPS
Count of elements: 351
Stream size: 11.4 KiB (0%)
Language: Estonian
Default: No
Forced: No

Text #14
ID: 16
Format: UTF-8
Codec ID: S_TEXT/UTF8
Codec ID/Info: UTF-8 Plain Text
Duration: 33 min 46 s
Bit rate: 45 b/s
Frame rate: 0.168 FPS
Count of elements: 340
Stream size: 11.2 KiB (0%)
Language: Finnish
Default: No
Forced: No

Text #15
ID: 17
Format: UTF-8
Codec ID: S_TEXT/UTF8
Codec ID/Info: UTF-8 Plain Text
Duration: 33 min 18 s
Bit rate: 43 b/s
Frame rate: 0.201 FPS
Count of elements: 401
Stream size: 10.7 KiB (0%)
Title: French (Canada)
Language: French (CA)
Default: No
Forced: No

Text #16
ID: 18
Format: UTF-8
Codec ID: S_TEXT/UTF8
Codec ID/Info: UTF-8 Plain Text
Duration: 33 min 18 s
Bit rate: 43 b/s
Frame rate: 0.201 FPS
Count of elements: 401
Stream size: 10.7 KiB (0%)
Title: French (France)
Language: French (FR)
Default: No
Forced: No

Text #17
ID: 19
Format: UTF-8
Codec ID: S_TEXT/UTF8
Codec ID/Info: UTF-8 Plain Text
Duration: 33 min 46 s
Bit rate: 65 b/s
Frame rate: 0.184 FPS
Count of elements: 372
Stream size: 16.2 KiB (0%)
Language: Hebrew
Default: No
Forced: No

Text #18
ID: 20
Format: UTF-8
Codec ID: S_TEXT/UTF8
Codec ID/Info: UTF-8 Plain Text
Duration: 34 min 59 s
Bit rate: 131 b/s
Frame rate: 0.178 FPS
Count of elements: 373
Stream size: 33.8 KiB (0%)
Language: Hindi
Default: No
Forced: No

Text #19
ID: 21
Format: UTF-8
Codec ID: S_TEXT/UTF8
Codec ID/Info: UTF-8 Plain Text
Duration: 33 min 46 s
Bit rate: 47 b/s
Frame rate: 0.182 FPS
Count of elements: 368
Stream size: 11.7 KiB (0%)
Language: Hungarian
Default: No
Forced: No

Text #20
ID: 22
Format: UTF-8
Codec ID: S_TEXT/UTF8
Codec ID/Info: UTF-8 Plain Text
Duration: 33 min 46 s
Bit rate: 51 b/s
Frame rate: 0.183 FPS
Count of elements: 370
Stream size: 12.7 KiB (0%)
Language: Indonesian
Default: No
Forced: No

Text #21
ID: 23
Format: UTF-8
Codec ID: S_TEXT/UTF8
Codec ID/Info: UTF-8 Plain Text
Duration: 33 min 33 s
Bit rate: 46 b/s
Frame rate: 0.176 FPS
Count of elements: 355
Stream size: 11.4 KiB (0%)
Language: Italian
Default: No
Forced: No

Text #22
ID: 24
Format: UTF-8
Codec ID: S_TEXT/UTF8
Codec ID/Info: UTF-8 Plain Text
Duration: 35 min 7 s
Bit rate: 37 b/s
Frame rate: 0.189 FPS
Count of elements: 398
Stream size: 9.62 KiB (0%)
Language: Japanese
Default: No
Forced: No

Text #23
ID: 25
Format: UTF-8
Codec ID: S_TEXT/UTF8
Codec ID/Info: UTF-8 Plain Text
Duration: 34 min 59 s
Bit rate: 51 b/s
Frame rate: 0.178 FPS
Count of elements: 373
Stream size: 13.2 KiB (0%)
Language: Korean
Default: No
Forced: No

Text #24
ID: 26
Format: UTF-8
Codec ID: S_TEXT/UTF8
Codec ID/Info: UTF-8 Plain Text
Duration: 33 min 46 s
Bit rate: 49 b/s
Frame rate: 0.182 FPS
Count of elements: 368
Stream size: 12.3 KiB (0%)
Language: Lithuanian
Default: No
Forced: No

Text #25
ID: 27
Format: UTF-8
Codec ID: S_TEXT/UTF8
Codec ID/Info: UTF-8 Plain Text
Duration: 33 min 46 s
Bit rate: 49 b/s
Frame rate: 0.179 FPS
Count of elements: 362
Stream size: 12.3 KiB (0%)
Language: Latvian
Default: No
Forced: No

Text #26
ID: 28
Format: UTF-8
Codec ID: S_TEXT/UTF8
Codec ID/Info: UTF-8 Plain Text
Duration: 33 min 46 s
Bit rate: 49 b/s
Frame rate: 0.183 FPS
Count of elements: 370
Stream size: 12.2 KiB (0%)
Language: Malay
Default: No
Forced: No

Text #27
ID: 29
Format: UTF-8
Codec ID: S_TEXT/UTF8
Codec ID/Info: UTF-8 Plain Text
Duration: 33 min 46 s
Bit rate: 41 b/s
Frame rate: 0.153 FPS
Count of elements: 311
Stream size: 10.4 KiB (0%)
Language: Dutch
Default: No
Forced: No

Text #28
ID: 30
Format: UTF-8
Codec ID: S_TEXT/UTF8
Codec ID/Info: UTF-8 Plain Text
Duration: 33 min 46 s
Bit rate: 42 b/s
Frame rate: 0.153 FPS
Count of elements: 310
Stream size: 10.5 KiB (0%)
Language: Norwegian
Default: No
Forced: No

Text #29
ID: 31
Format: UTF-8
Codec ID: S_TEXT/UTF8
Codec ID/Info: UTF-8 Plain Text
Duration: 33 min 46 s
Bit rate: 41 b/s
Frame rate: 0.170 FPS
Count of elements: 345
Stream size: 10.3 KiB (0%)
Language: Polish
Default: No
Forced: No

Text #30
ID: 32
Format: UTF-8
Codec ID: S_TEXT/UTF8
Codec ID/Info: UTF-8 Plain Text
Duration: 33 min 46 s
Bit rate: 48 b/s
Frame rate: 0.178 FPS
Count of elements: 361
Stream size: 11.9 KiB (0%)
Title: Portuguese
Language: Portuguese
Default: No
Forced: No

Text #31
ID: 33
Format: UTF-8
Codec ID: S_TEXT/UTF8
Codec ID/Info: UTF-8 Plain Text
Duration: 33 min 46 s
Bit rate: 44 b/s
Frame rate: 0.168 FPS
Count of elements: 340
Stream size: 11.1 KiB (0%)
Title: Portuguese (Brazil)
Language: Portuguese (BR)
Default: No
Forced: No

Text #32
ID: 34
Format: UTF-8
Codec ID: S_TEXT/UTF8
Codec ID/Info: UTF-8 Plain Text
Duration: 34 min 59 s
Bit rate: 73 b/s
Frame rate: 0.178 FPS
Count of elements: 373
Stream size: 18.8 KiB (0%)
Language: Russian
Default: No
Forced: No

Text #33
ID: 35
Format: UTF-8
Codec ID: S_TEXT/UTF8
Codec ID/Info: UTF-8 Plain Text
Duration: 33 min 46 s
Bit rate: 43 b/s
Frame rate: 0.178 FPS
Count of elements: 360
Stream size: 10.7 KiB (0%)
Language: Slovak
Default: No
Forced: No

Text #34
ID: 36
Format: UTF-8
Codec ID: S_TEXT/UTF8
Codec ID/Info: UTF-8 Plain Text
Duration: 33 min 46 s
Bit rate: 38 b/s
Frame rate: 0.178 FPS
Count of elements: 361
Stream size: 9.53 KiB (0%)
Language: Slovenian
Default: No
Forced: No

Text #35
ID: 37
Format: UTF-8
Codec ID: S_TEXT/UTF8
Codec ID/Info: UTF-8 Plain Text
Duration: 33 min 46 s
Bit rate: 48 b/s
Frame rate: 0.174 FPS
Count of elements: 352
Stream size: 12.1 KiB (0%)
Language: Swedish
Default: No
Forced: No

Text #36
ID: 38
Format: UTF-8
Codec ID: S_TEXT/UTF8
Codec ID/Info: UTF-8 Plain Text
Duration: 33 min 46 s
Bit rate: 156 b/s
Frame rate: 0.184 FPS
Count of elements: 372
Stream size: 38.7 KiB (0%)
Language: Tamil
Default: No
Forced: No

Text #37
ID: 39
Format: UTF-8
Codec ID: S_TEXT/UTF8
Codec ID/Info: UTF-8 Plain Text
Duration: 33 min 46 s
Bit rate: 143 b/s
Frame rate: 0.184 FPS
Count of elements: 372
Stream size: 35.5 KiB (0%)
Language: Telugu
Default: No
Forced: No

Text #38
ID: 40
Format: UTF-8
Codec ID: S_TEXT/UTF8
Codec ID/Info: UTF-8 Plain Text
Duration: 33 min 46 s
Bit rate: 122 b/s
Frame rate: 0.184 FPS
Count of elements: 372
Stream size: 30.3 KiB (0%)
Language: Thai
Default: No
Forced: No

Text #39
ID: 41
Format: UTF-8
Codec ID: S_TEXT/UTF8
Codec ID/Info: UTF-8 Plain Text
Duration: 33 min 46 s
Bit rate: 48 b/s
Frame rate: 0.177 FPS
Count of elements: 359
Stream size: 12.0 KiB (0%)
Language: Turkish
Default: No
Forced: No

Text #40
ID: 42
Format: UTF-8
Codec ID: S_TEXT/UTF8
Codec ID/Info: UTF-8 Plain Text
Duration: 34 min 59 s
Bit rate: 70 b/s
Frame rate: 0.177 FPS
Count of elements: 372
Stream size: 18.0 KiB (0%)
Language: Ukrainian
Default: No
Forced: No

Text #41
ID: 43
Format: UTF-8
Codec ID: S_TEXT/UTF8
Codec ID/Info: UTF-8 Plain Text
Duration: 34 min 59 s
Bit rate: 62 b/s
Frame rate: 0.177 FPS
Count of elements: 371
Stream size: 16.1 KiB (0%)
Language: Vietnamese
Default: No
Forced: No

Text #42
ID: 44
Format: UTF-8
Codec ID: S_TEXT/UTF8
Codec ID/Info: UTF-8 Plain Text
Duration: 34 min 59 s
Bit rate: 39 b/s
Frame rate: 0.178 FPS
Count of elements: 373
Stream size: 10.1 KiB (0%)
Title: Cantonese (Traditional)
Language: Cantonese (Hant)
Default: No
Forced: No

Menu
00:00:07.000: en:Intro
00:01:00.624: en:Chapter 1
ssl  EZTV RSS EZTV Status | EZTV API | DMCA: [email protected]