eztv.yt | eztvstatus.org
Search title:  
TV Packs only
 

Doctor Who 2005 S14E02 The Devils Chord 720p DSNP WEB-DL DD 5 1 H 264-playWEB EZTV

Episode Breakdown
Doctor Who (2005)
Doctor Who (2005) TV Show S14E02

Season: 14
Episode: 2
Download Links
     Torrent Download     Magnet Download
     Anonymous Download
Added 16 days ago by eztv (verified).
Tracker Statistics
Seeds: 466
Peers: 12
Stats generated @ 15:18 on 27th May 2024
Torrent Info
Torrent File: Doctor Who 2005 S14E02 The Devils Chord 720p DSNP WEB-DL DD 5 1 H 264-playWEB[EZTVx.to].mkv
Torrent Hash: 9DC769FC82322033172D4D58C20F0E9EA55ADED9
Filesize: 1.10 GB
Released: 11th May 2024

File Format: MKV (Matroska)
Resolution: 1280x720 px
Aspect Ratio: 16:9
Alternate Releases S L
Doctor Who 2005 S14E02 The Devils Chord 1080p DSNP WEB-DL DDP5 1 H 264-FLUX 398 16
Doctor Who 2005 S14E02 720p x264-FENiX 22 1
Doctor Who 2005 S14E02 720p x265-T0PAZ 61 1
Doctor Who 2005 S14E02 The Devils Chord 1080p DSNP WEB-DL DDP5 1 H 264-NTb 99 7

Episode Description


Doctor Who 2005 S14E02 The Devils Chord 720p DSNP WEB-DL DD 5 1 H 264-playWEB EZTV
Doctor Who (2005) S14E2 Screenshot


General
Unique ID: 115031449207819319808605310282493946839 (0x568A40526A5A799C099FBED156F16BD7)
Complete name: Doctor Who 2005 S14E02 The Devils Chord 720p DSNP WEB-DL DD 5 1 H 264-playWEB.mkv
Format: Matroska
Format version: Version 4
File size: 1.10 GiB
Duration: 49 min 55 s
Overall bit rate mode: Variable
Overall bit rate: 3 163 kb/s
Frame rate: 25.000 FPS
Writing application: mkvmerge v84.0 ('Sleeper') 64-bit
Writing library: libebml v1.4.5 + libmatroska v1.7.1

Video
ID: 1
Format: AVC
Format/Info: Advanced Video Codec
Format profile: [email protected]
Format settings: CABAC / 4 Ref Frames
Format settings, CABAC: Yes
Format settings, Reference frames: 4 frames
Codec ID: V_MPEG4/ISO/AVC
Duration: 49 min 55 s
Bit rate mode: Variable
Bit rate: 2 903 kb/s
Maximum bit rate: 6 375 kb/s
Width: 1 280 pixels
Height: 720 pixels
Display aspect ratio: 16:9
Frame rate mode: Constant
Frame rate: 25.000 FPS
Color space: YUV
Chroma subsampling: 4:2:0
Bit depth: 8 bits
Scan type: Progressive
Bits/(Pixel*Frame): 0.126
Time code of first frame: 00:00:00:0000000000
Stream size: 1.01 GiB (92%)
Default: Yes
Forced: No
Color range: Limited
Color primaries: BT.709
Transfer characteristics: BT.709
Matrix coefficients: BT.709

Audio
ID: 2
Format: E-AC-3
Format/Info: Enhanced AC-3
Commercial name: Dolby Digital Plus
Codec ID: A_EAC3
Duration: 49 min 55 s
Bit rate mode: Constant
Bit rate: 256 kb/s
Channel(s): 6 channels
Channel layout: L R C LFE Ls Rs
Sampling rate: 48.0 kHz
Frame rate: 31.250 FPS (1536 SPF)
Compression mode: Lossy
Stream size: 91.4 MiB (8%)
Language: English
Service kind: Complete Main
Default: Yes
Forced: No

Text #1
ID: 3
Format: UTF-8
Codec ID: S_TEXT/UTF8
Codec ID/Info: UTF-8 Plain Text
Duration: 49 min 35 s
Bit rate: 48 b/s
Frame rate: 0.188 FPS
Count of elements: 560
Stream size: 17.4 KiB (0%)
Language: Czech
Default: No
Forced: No

Text #2
ID: 4
Format: UTF-8
Codec ID: S_TEXT/UTF8
Codec ID/Info: UTF-8 Plain Text
Duration: 49 min 35 s
Bit rate: 49 b/s
Frame rate: 0.187 FPS
Count of elements: 556
Stream size: 17.9 KiB (0%)
Language: Danish
Default: No
Forced: No

Text #3
ID: 5
Format: UTF-8
Codec ID: S_TEXT/UTF8
Codec ID/Info: UTF-8 Plain Text
Duration: 49 min 35 s
Bit rate: 49 b/s
Frame rate: 0.203 FPS
Count of elements: 604
Stream size: 18.0 KiB (0%)
Language: German
Default: No
Forced: No

Text #4
ID: 6
Format: UTF-8
Codec ID: S_TEXT/UTF8
Codec ID/Info: UTF-8 Plain Text
Duration: 49 min 35 s
Bit rate: 82 b/s
Frame rate: 0.203 FPS
Count of elements: 603
Stream size: 30.0 KiB (0%)
Language: Greek
Default: No
Forced: No

Text #5
ID: 7
Format: UTF-8
Codec ID: S_TEXT/UTF8
Codec ID/Info: UTF-8 Plain Text
Duration: 48 min 50 s
Bit rate: 54 b/s
Frame rate: 0.218 FPS
Count of elements: 638
Stream size: 19.3 KiB (0%)
Language: English
Default: No
Forced: No

Text #6
ID: 8
Format: UTF-8
Codec ID: S_TEXT/UTF8
Codec ID/Info: UTF-8 Plain Text
Duration: 48 min 55 s
Bit rate: 72 b/s
Frame rate: 0.297 FPS
Count of elements: 871
Stream size: 26.0 KiB (0%)
Title: British (SDH)
Language: English
Default: No
Forced: No

Text #7
ID: 9
Format: UTF-8
Codec ID: S_TEXT/UTF8
Codec ID/Info: UTF-8 Plain Text
Duration: 49 min 35 s
Bit rate: 45 b/s
Frame rate: 0.166 FPS
Count of elements: 494
Stream size: 16.6 KiB (0%)
Title: Latin American
Language: Spanish
Default: No
Forced: No

Text #8
ID: 10
Format: UTF-8
Codec ID: S_TEXT/UTF8
Codec ID/Info: UTF-8 Plain Text
Duration: 49 min 35 s
Bit rate: 49 b/s
Frame rate: 0.199 FPS
Count of elements: 592
Stream size: 17.8 KiB (0%)
Title: European
Language: Spanish
Default: No
Forced: No

Text #9
ID: 11
Format: UTF-8
Codec ID: S_TEXT/UTF8
Codec ID/Info: UTF-8 Plain Text
Duration: 49 min 35 s
Bit rate: 46 b/s
Frame rate: 0.175 FPS
Count of elements: 522
Stream size: 16.9 KiB (0%)
Language: Finnish
Default: No
Forced: No

Text #10
ID: 12
Format: UTF-8
Codec ID: S_TEXT/UTF8
Codec ID/Info: UTF-8 Plain Text
Duration: 49 min 35 s
Bit rate: 47 b/s
Frame rate: 0.205 FPS
Count of elements: 610
Stream size: 17.3 KiB (0%)
Title: European
Language: French
Default: No
Forced: No

Text #11
ID: 13
Format: UTF-8
Codec ID: S_TEXT/UTF8
Codec ID/Info: UTF-8 Plain Text
Duration: 49 min 35 s
Bit rate: 46 b/s
Frame rate: 0.202 FPS
Count of elements: 602
Stream size: 16.8 KiB (0%)
Language: Hungarian
Default: No
Forced: No

Text #12
ID: 14
Format: UTF-8
Codec ID: S_TEXT/UTF8
Codec ID/Info: UTF-8 Plain Text
Duration: 49 min 35 s
Bit rate: 44 b/s
Frame rate: 0.204 FPS
Count of elements: 606
Stream size: 16.3 KiB (0%)
Language: Italian
Default: No
Forced: No

Text #13
ID: 15
Format: UTF-8
Codec ID: S_TEXT/UTF8
Codec ID/Info: UTF-8 Plain Text
Duration: 49 min 35 s
Bit rate: 46 b/s
Frame rate: 0.196 FPS
Count of elements: 582
Stream size: 17.0 KiB (0%)
Language: Japanese
Default: No
Forced: No

Text #14
ID: 16
Format: UTF-8
Codec ID: S_TEXT/UTF8
Codec ID/Info: UTF-8 Plain Text
Duration: 49 min 37 s
Bit rate: 55 b/s
Frame rate: 0.209 FPS
Count of elements: 622
Stream size: 20.3 KiB (0%)
Language: Korean
Default: No
Forced: No

Text #15
ID: 17
Format: UTF-8
Codec ID: S_TEXT/UTF8
Codec ID/Info: UTF-8 Plain Text
Duration: 49 min 35 s
Bit rate: 43 b/s
Frame rate: 0.144 FPS
Count of elements: 428
Stream size: 15.8 KiB (0%)
Language: Dutch
Default: No
Forced: No

Text #16
ID: 18
Format: UTF-8
Codec ID: S_TEXT/UTF8
Codec ID/Info: UTF-8 Plain Text
Duration: 49 min 35 s
Bit rate: 41 b/s
Frame rate: 0.138 FPS
Count of elements: 412
Stream size: 15.2 KiB (0%)
Language: Norwegian
Default: No
Forced: No

Text #17
ID: 19
Format: UTF-8
Codec ID: S_TEXT/UTF8
Codec ID/Info: UTF-8 Plain Text
Duration: 49 min 35 s
Bit rate: 44 b/s
Frame rate: 0.194 FPS
Count of elements: 576
Stream size: 16.1 KiB (0%)
Language: Polish
Default: No
Forced: No

Text #18
ID: 20
Format: UTF-8
Codec ID: S_TEXT/UTF8
Codec ID/Info: UTF-8 Plain Text
Duration: 49 min 35 s
Bit rate: 49 b/s
Frame rate: 0.200 FPS
Count of elements: 596
Stream size: 18.0 KiB (0%)
Title: Brazilian
Language: Portuguese
Default: No
Forced: No

Text #19
ID: 21
Format: UTF-8
Codec ID: S_TEXT/UTF8
Codec ID/Info: UTF-8 Plain Text
Duration: 49 min 35 s
Bit rate: 49 b/s
Frame rate: 0.207 FPS
Count of elements: 617
Stream size: 17.9 KiB (0%)
Title: European
Language: Portuguese
Default: No
Forced: No

Text #20
ID: 22
Format: UTF-8
Codec ID: S_TEXT/UTF8
Codec ID/Info: UTF-8 Plain Text
Duration: 48 min 50 s
Bit rate: 46 b/s
Frame rate: 0.163 FPS
Count of elements: 479
Stream size: 16.8 KiB (0%)
Language: Romanian
Default: No
Forced: No

Text #21
ID: 23
Format: UTF-8
Codec ID: S_TEXT/UTF8
Codec ID/Info: UTF-8 Plain Text
Duration: 49 min 35 s
Bit rate: 44 b/s
Frame rate: 0.197 FPS
Count of elements: 587
Stream size: 16.3 KiB (0%)
Language: Slovak
Default: No
Forced: No

Text #22
ID: 24
Format: UTF-8
Codec ID: S_TEXT/UTF8
Codec ID/Info: UTF-8 Plain Text
Duration: 49 min 35 s
Bit rate: 40 b/s
Frame rate: 0.177 FPS
Count of elements: 526
Stream size: 14.6 KiB (0%)
Language: Swedish
Default: No
Forced: No

Text #23
ID: 25
Format: UTF-8
Codec ID: S_TEXT/UTF8
Codec ID/Info: UTF-8 Plain Text
Duration: 49 min 35 s
Bit rate: 47 b/s
Frame rate: 0.208 FPS
Count of elements: 618
Stream size: 17.4 KiB (0%)
Language: Turkish
Default: No
Forced: No

Text #24
ID: 26
Format: UTF-8
Codec ID: S_TEXT/UTF8
Codec ID/Info: UTF-8 Plain Text
Duration: 49 min 37 s
Bit rate: 47 b/s
Frame rate: 0.209 FPS
Count of elements: 622
Stream size: 17.4 KiB (0%)
Title: Traditional
Language: Chinese
Default: No
Forced: No

Menu
00:04:51.520: en:Intro
00:05:17.640: en:Scene 1
00:49:09.760: en:Credits

ssl  EZTV RSS EZTV Status | EZTV API | DMCA: [email protected]