eztv.yt | eztvstatus.org
Search title:  
TV Packs only
 

Doctor Who 2005 S14E02 The Devils Chord 1080p DSNP WEB-DL DDP5 1 H 264-FLUX EZTV

Episode Breakdown
Doctor Who (2005)
Doctor Who (2005) TV Show S14E02

Season: 14
Episode: 2
Download Links
     Torrent Download     Magnet Download
     Anonymous Download
Added 18 days ago by eztv (verified).
Tracker Statistics
Seeds: 351
Peers: 9
Stats generated @ 04:16 on 29th May 2024
Torrent Info
Torrent File: Doctor Who 2005 S14E02 The Devils Chord 1080p DSNP WEB-DL DDP5 1 H 264-FLUX[EZTVx.to].mkv
Torrent Hash: 1A28008A852EC73BCF08EFED98F3A176762DC72A
Filesize: 2.09 GB
Released: 11th May 2024

File Format: MKV (Matroska)
Resolution: 1920x1080 px
Aspect Ratio: 16:9
Alternate Releases S L
Doctor Who 2005 S14E02 The Devils Chord 720p DSNP WEB-DL DD 5 1 H 264-playWEB 427 11
Doctor Who 2005 S14E02 720p x264-FENiX 19 1
Doctor Who 2005 S14E02 720p x265-T0PAZ 54 2
Doctor Who 2005 S14E02 The Devils Chord 1080p DSNP WEB-DL DDP5 1 H 264-NTb 116 2

Episode Description
Doctor Who 2005 S14E02 The Devils Chord 1080p DSNP WEB-DL DDP5 1 H 264-FLUX EZTV
Doctor Who (2005) S14E2 Screenshot


General
Unique ID: 293986275223625553739401899527107183009 (0xDD2BB273209D9191DE4EE8329AEB01A1)
Complete name: Doctor Who 2005 S14E02 The Devils Chord 1080p DSNP WEB-DL DDP5 1 H 264-FLUX.mkv
Format: Matroska
Format version: Version 4
File size: 2.09 GiB
Duration: 49 min 55 s
Overall bit rate mode: Variable
Overall bit rate: 6 002 kb/s
Frame rate: 25.000 FPS
Writing application: mkvmerge v79.0 ('Funeral Pyres') 64-bit
Writing library: libebml v1.4.4 + libmatroska v1.7.1

Video
ID: 1
Format: AVC
Format/Info: Advanced Video Codec
Format profile: High@L4
Format settings: CABAC / 4 Ref Frames
Format settings, CABAC: Yes
Format settings, Reference frames: 4 frames
Codec ID: V_MPEG4/ISO/AVC
Duration: 49 min 55 s
Bit rate mode: Variable
Bit rate: 5 741 kb/s
Maximum bit rate: 12.7 Mb/s
Width: 1 920 pixels
Height: 1 080 pixels
Display aspect ratio: 16:9
Frame rate mode: Constant
Frame rate: 25.000 FPS
Color space: YUV
Chroma subsampling: 4:2:0
Bit depth: 8 bits
Scan type: Progressive
Bits/(Pixel*Frame): 0.111
Time code of first frame: 00:00:00:0000000000
Stream size: 2.00 GiB (96%)
Language: English
Default: Yes
Forced: No
Color range: Limited
Color primaries: BT.709
Transfer characteristics: BT.709
Matrix coefficients: BT.709

Audio
ID: 2
Format: E-AC-3
Format/Info: Enhanced AC-3
Commercial name: Dolby Digital Plus
Codec ID: A_EAC3
Duration: 49 min 55 s
Bit rate mode: Constant
Bit rate: 256 kb/s
Channel(s): 6 channels
Channel layout: L R C LFE Ls Rs
Sampling rate: 48.0 kHz
Frame rate: 31.250 FPS (1536 SPF)
Compression mode: Lossy
Stream size: 91.4 MiB (4%)
Language: English
Service kind: Complete Main
Default: Yes
Forced: No

Text #1
ID: 3
Format: UTF-8
Codec ID: S_TEXT/UTF8
Codec ID/Info: UTF-8 Plain Text
Duration: 48 min 50 s
Bit rate: 53 b/s
Frame rate: 0.215 FPS
Count of elements: 631
Stream size: 19.0 KiB (0%)
Title: British
Language: English (GB)
Default: No
Forced: No

Text #2
ID: 4
Format: UTF-8
Codec ID: S_TEXT/UTF8
Codec ID/Info: UTF-8 Plain Text
Duration: 48 min 55 s
Bit rate: 71 b/s
Frame rate: 0.295 FPS
Count of elements: 866
Stream size: 25.6 KiB (0%)
Title: British | SDH
Language: English (GB)
Default: No
Forced: No

Text #3
ID: 5
Format: UTF-8
Codec ID: S_TEXT/UTF8
Codec ID/Info: UTF-8 Plain Text
Duration: 49 min 35 s
Bit rate: 47 b/s
Frame rate: 0.187 FPS
Count of elements: 556
Stream size: 17.2 KiB (0%)
Language: Czech
Default: No
Forced: No

Text #4
ID: 6
Format: UTF-8
Codec ID: S_TEXT/UTF8
Codec ID/Info: UTF-8 Plain Text
Duration: 49 min 35 s
Bit rate: 48 b/s
Frame rate: 0.185 FPS
Count of elements: 551
Stream size: 17.6 KiB (0%)
Language: Danish
Default: No
Forced: No

Text #5
ID: 7
Format: UTF-8
Codec ID: S_TEXT/UTF8
Codec ID/Info: UTF-8 Plain Text
Duration: 49 min 35 s
Bit rate: 48 b/s
Frame rate: 0.202 FPS
Count of elements: 601
Stream size: 17.8 KiB (0%)
Language: German
Default: No
Forced: No

Text #6
ID: 8
Format: UTF-8
Codec ID: S_TEXT/UTF8
Codec ID/Info: UTF-8 Plain Text
Duration: 49 min 35 s
Bit rate: 81 b/s
Frame rate: 0.200 FPS
Count of elements: 596
Stream size: 29.5 KiB (0%)
Language: Greek
Default: No
Forced: No

Text #7
ID: 9
Format: UTF-8
Codec ID: S_TEXT/UTF8
Codec ID/Info: UTF-8 Plain Text
Duration: 49 min 35 s
Bit rate: 44 b/s
Frame rate: 0.165 FPS
Count of elements: 491
Stream size: 16.2 KiB (0%)
Title: Latin American
Language: Spanish (Latin America)
Default: No
Forced: No

Text #8
ID: 10
Format: UTF-8
Codec ID: S_TEXT/UTF8
Codec ID/Info: UTF-8 Plain Text
Duration: 49 min 35 s
Bit rate: 48 b/s
Frame rate: 0.197 FPS
Count of elements: 587
Stream size: 17.6 KiB (0%)
Language: Spanish (ES)
Default: No
Forced: No

Text #9
ID: 11
Format: UTF-8
Codec ID: S_TEXT/UTF8
Codec ID/Info: UTF-8 Plain Text
Duration: 49 min 35 s
Bit rate: 46 b/s
Frame rate: 0.175 FPS
Count of elements: 520
Stream size: 16.7 KiB (0%)
Language: Finnish
Default: No
Forced: No

Text #10
ID: 12
Format: UTF-8
Codec ID: S_TEXT/UTF8
Codec ID/Info: UTF-8 Plain Text
Duration: 49 min 35 s
Bit rate: 46 b/s
Frame rate: 0.203 FPS
Count of elements: 604
Stream size: 17.0 KiB (0%)
Language: French (FR)
Default: No
Forced: No

Text #11
ID: 13
Format: UTF-8
Codec ID: S_TEXT/UTF8
Codec ID/Info: UTF-8 Plain Text
Duration: 49 min 35 s
Bit rate: 45 b/s
Frame rate: 0.201 FPS
Count of elements: 597
Stream size: 16.6 KiB (0%)
Language: Hungarian
Default: No
Forced: No

Text #12
ID: 14
Format: UTF-8
Codec ID: S_TEXT/UTF8
Codec ID/Info: UTF-8 Plain Text
Duration: 49 min 35 s
Bit rate: 44 b/s
Frame rate: 0.204 FPS
Count of elements: 606
Stream size: 16.2 KiB (0%)
Language: Italian
Default: No
Forced: No

Text #13
ID: 15
Format: UTF-8
Codec ID: S_TEXT/UTF8
Codec ID/Info: UTF-8 Plain Text
Duration: 49 min 35 s
Bit rate: 44 b/s
Frame rate: 0.197 FPS
Count of elements: 586
Stream size: 16.3 KiB (0%)
Language: Japanese
Default: No
Forced: No

Text #14
ID: 16
Format: UTF-8
Codec ID: S_TEXT/UTF8
Codec ID/Info: UTF-8 Plain Text
Duration: 49 min 37 s
Bit rate: 55 b/s
Frame rate: 0.207 FPS
Count of elements: 617
Stream size: 20.1 KiB (0%)
Language: Korean
Default: No
Forced: No

Text #15
ID: 17
Format: UTF-8
Codec ID: S_TEXT/UTF8
Codec ID/Info: UTF-8 Plain Text
Duration: 49 min 35 s
Bit rate: 42 b/s
Frame rate: 0.143 FPS
Count of elements: 426
Stream size: 15.3 KiB (0%)
Language: Dutch
Default: No
Forced: No

Text #16
ID: 18
Format: UTF-8
Codec ID: S_TEXT/UTF8
Codec ID/Info: UTF-8 Plain Text
Duration: 49 min 35 s
Bit rate: 41 b/s
Frame rate: 0.138 FPS
Count of elements: 412
Stream size: 15.1 KiB (0%)
Language: Norwegian
Default: No
Forced: No

Text #17
ID: 19
Format: UTF-8
Codec ID: S_TEXT/UTF8
Codec ID/Info: UTF-8 Plain Text
Duration: 49 min 35 s
Bit rate: 44 b/s
Frame rate: 0.194 FPS
Count of elements: 576
Stream size: 16.0 KiB (0%)
Language: Polish
Default: No
Forced: No

Text #18
ID: 20
Format: UTF-8
Codec ID: S_TEXT/UTF8
Codec ID/Info: UTF-8 Plain Text
Duration: 49 min 35 s
Bit rate: 48 b/s
Frame rate: 0.199 FPS
Count of elements: 592
Stream size: 17.6 KiB (0%)
Title: Brazilian
Language: Portuguese (BR)
Default: No
Forced: No

Text #19
ID: 21
Format: UTF-8
Codec ID: S_TEXT/UTF8
Codec ID/Info: UTF-8 Plain Text
Duration: 49 min 35 s
Bit rate: 48 b/s
Frame rate: 0.205 FPS
Count of elements: 610
Stream size: 17.5 KiB (0%)
Language: Portuguese (PT)
Default: No
Forced: No

Text #20
ID: 22
Format: UTF-8
Codec ID: S_TEXT/UTF8
Codec ID/Info: UTF-8 Plain Text
Duration: 48 min 50 s
Bit rate: 46 b/s
Frame rate: 0.162 FPS
Count of elements: 476
Stream size: 16.5 KiB (0%)
Language: Romanian
Default: No
Forced: No

Text #21
ID: 23
Format: UTF-8
Codec ID: S_TEXT/UTF8
Codec ID/Info: UTF-8 Plain Text
Duration: 49 min 35 s
Bit rate: 43 b/s
Frame rate: 0.196 FPS
Count of elements: 584
Stream size: 16.0 KiB (0%)
Language: Slovak
Default: No
Forced: No

Text #22
ID: 24
Format: UTF-8
Codec ID: S_TEXT/UTF8
Codec ID/Info: UTF-8 Plain Text
Duration: 49 min 35 s
Bit rate: 40 b/s
Frame rate: 0.176 FPS
Count of elements: 524
Stream size: 14.6 KiB (0%)
Language: Swedish
Default: No
Forced: No

Text #23
ID: 25
Format: UTF-8
Codec ID: S_TEXT/UTF8
Codec ID/Info: UTF-8 Plain Text
Duration: 49 min 35 s
Bit rate: 47 b/s
Frame rate: 0.206 FPS
Count of elements: 612
Stream size: 17.2 KiB (0%)
Language: Turkish
Default: No
Forced: No

Text #24
ID: 26
Format: UTF-8
Codec ID: S_TEXT/UTF8
Codec ID/Info: UTF-8 Plain Text
Duration: 49 min 37 s
Bit rate: 45 b/s
Frame rate: 0.206 FPS
Count of elements: 613
Stream size: 16.6 KiB (0%)
Title: Traditional
Language: Chinese (Traditional)
Default: No
Forced: No

Menu
00:04:51.520: en:Intro
00:05:24.600: en:Scene 1
00:10:22.080: en:Scene 2
00:20:36.760: en:Scene 3
00:33:27.520: en:Scene 4
00:45:03.160: en:Scene 5
00:49:04.760: en:Credits

ssl  EZTV RSS EZTV Status | EZTV API | DMCA: [email protected]