eztv.yt | eztvstatus.org
Search title:  
TV Packs only
 

Doctor Who 2005 S14E01 Space Babies 1080p DSNP WEB-DL DDP5 1 H 264-NTb EZTV

Episode Breakdown
Doctor Who (2005)
Doctor Who (2005) TV Show S14E01

Season: 14
Episode: 1
Download Links
     Torrent Download     Magnet Download
     Anonymous Download
Added 15 days ago by eztv (verified).
Tracker Statistics
Seeds: 231
Peers: 13
Stats generated @ 15:38 on 27th May 2024
Torrent Info
Torrent File: Doctor Who 2005 S14E01 Space Babies 1080p DSNP WEB-DL DDP5 1 H 264-NTb[EZTVx.to].mkv
Torrent Hash: 82FC22191F44065C2318E77EE88FEE0DCAF476C7
Filesize: 2.30 GB
Released: 11th May 2024

File Format: MKV (Matroska)
Resolution: 1920x1080 px
Aspect Ratio: 16:9
Alternate Releases S L
Doctor Who 2005 S14E01 Space Babys 720p DSNP WEB-DL DD5 1 H 264-playWEB 286 8

Episode Description


Doctor Who 2005 S14E01 Space Babies 1080p DSNP WEB-DL DDP5 1 H 264-NTb EZTV
Doctor Who (2005) S14E1 Screenshot


General
Unique ID: 334108160513561818103865151217295696063 (0xFB5AE41F1C7D5BB098291747356420BF)
Complete name: Doctor Who 2005 S14E01 Space Babies 1080p DSNP WEB-DL DDP5 1 H 264-NTb.mkv
Format: Matroska
Format version: Version 4
File size: 2.30 GiB
Duration: 46 min 31 s
Overall bit rate mode: Variable
Overall bit rate: 7 086 kb/s
Frame rate: 25.000 FPS
Writing application: mkvmerge v81.0 ('Milliontown') 64-bit
Writing library: libebml v1.4.4 + libmatroska v1.7.1

Video
ID: 1
Format: AVC
Format/Info: Advanced Video Codec
Format profile: High@L4
Format settings: CABAC / 4 Ref Frames
Format settings, CABAC: Yes
Format settings, Reference frames: 4 frames
Codec ID: V_MPEG4/ISO/AVC
Duration: 46 min 31 s
Bit rate mode: Variable
Bit rate: 6 824 kb/s
Maximum bit rate: 12.7 Mb/s
Width: 1 920 pixels
Height: 1 080 pixels
Display aspect ratio: 16:9
Frame rate mode: Constant
Frame rate: 25.000 FPS
Color space: YUV
Chroma subsampling: 4:2:0
Bit depth: 8 bits
Scan type: Progressive
Bits/(Pixel*Frame): 0.132
Time code of first frame: 00:00:00:0000000000
Stream size: 2.22 GiB (96%)
Default: Yes
Forced: No
Color range: Limited
Color primaries: BT.709
Transfer characteristics: BT.709
Matrix coefficients: BT.709

Audio
ID: 2
Format: E-AC-3
Format/Info: Enhanced AC-3
Commercial name: Dolby Digital Plus
Codec ID: A_EAC3
Duration: 46 min 31 s
Bit rate mode: Constant
Bit rate: 256 kb/s
Channel(s): 6 channels
Channel layout: L R C LFE Ls Rs
Sampling rate: 48.0 kHz
Frame rate: 31.250 FPS (1536 SPF)
Compression mode: Lossy
Stream size: 85.2 MiB (4%)
Language: English
Service kind: Complete Main
Default: Yes
Forced: No

Text #1
ID: 3
Format: UTF-8
Codec ID: S_TEXT/UTF8
Codec ID/Info: UTF-8 Plain Text
Duration: 44 min 16 s
Bit rate: 73 b/s
Frame rate: 0.295 FPS
Count of elements: 784
Stream size: 24.0 KiB (0%)
Language: English (GB)
Default: No
Forced: No

Text #2
ID: 4
Format: UTF-8
Codec ID: S_TEXT/UTF8
Codec ID/Info: UTF-8 Plain Text
Duration: 45 min 33 s
Bit rate: 88 b/s
Frame rate: 0.348 FPS
Count of elements: 952
Stream size: 29.6 KiB (0%)
Title: SDH
Language: English (GB)
Default: No
Forced: No

Text #3
ID: 5
Format: UTF-8
Codec ID: S_TEXT/UTF8
Codec ID/Info: UTF-8 Plain Text
Duration: 45 min 53 s
Bit rate: 68 b/s
Frame rate: 0.260 FPS
Count of elements: 717
Stream size: 23.1 KiB (0%)
Language: Czech
Default: No
Forced: No

Text #4
ID: 6
Format: UTF-8
Codec ID: S_TEXT/UTF8
Codec ID/Info: UTF-8 Plain Text
Duration: 45 min 48 s
Bit rate: 68 b/s
Frame rate: 0.249 FPS
Count of elements: 683
Stream size: 22.8 KiB (0%)
Language: Danish
Default: No
Forced: No

Text #5
ID: 7
Format: UTF-8
Codec ID: S_TEXT/UTF8
Codec ID/Info: UTF-8 Plain Text
Duration: 45 min 48 s
Bit rate: 68 b/s
Frame rate: 0.277 FPS
Count of elements: 762
Stream size: 22.8 KiB (0%)
Language: German
Default: No
Forced: No

Text #6
ID: 8
Format: UTF-8
Codec ID: S_TEXT/UTF8
Codec ID/Info: UTF-8 Plain Text
Duration: 45 min 48 s
Bit rate: 113 b/s
Frame rate: 0.270 FPS
Count of elements: 742
Stream size: 38.0 KiB (0%)
Language: Greek
Default: No
Forced: No

Text #7
ID: 9
Format: UTF-8
Codec ID: S_TEXT/UTF8
Codec ID/Info: UTF-8 Plain Text
Duration: 45 min 48 s
Bit rate: 64 b/s
Frame rate: 0.243 FPS
Count of elements: 669
Stream size: 21.5 KiB (0%)
Title: Spanish (Latin America)
Language: Spanish (Latin America)
Default: No
Forced: No

Text #8
ID: 10
Format: UTF-8
Codec ID: S_TEXT/UTF8
Codec ID/Info: UTF-8 Plain Text
Duration: 45 min 48 s
Bit rate: 68 b/s
Frame rate: 0.268 FPS
Count of elements: 737
Stream size: 23.1 KiB (0%)
Title: Spanish (Spain)
Language: Spanish (ES)
Default: No
Forced: No

Text #9
ID: 11
Format: UTF-8
Codec ID: S_TEXT/UTF8
Codec ID/Info: UTF-8 Plain Text
Duration: 45 min 48 s
Bit rate: 66 b/s
Frame rate: 0.251 FPS
Count of elements: 690
Stream size: 22.5 KiB (0%)
Language: Finnish
Default: No
Forced: No

Text #10
ID: 12
Format: UTF-8
Codec ID: S_TEXT/UTF8
Codec ID/Info: UTF-8 Plain Text
Duration: 45 min 48 s
Bit rate: 66 b/s
Frame rate: 0.276 FPS
Count of elements: 759
Stream size: 22.2 KiB (0%)
Language: French (FR)
Default: No
Forced: No

Text #11
ID: 13
Format: UTF-8
Codec ID: S_TEXT/UTF8
Codec ID/Info: UTF-8 Plain Text
Duration: 45 min 53 s
Bit rate: 66 b/s
Frame rate: 0.271 FPS
Count of elements: 746
Stream size: 22.4 KiB (0%)
Language: Hungarian
Default: No
Forced: No

Text #12
ID: 14
Format: UTF-8
Codec ID: S_TEXT/UTF8
Codec ID/Info: UTF-8 Plain Text
Duration: 45 min 48 s
Bit rate: 65 b/s
Frame rate: 0.280 FPS
Count of elements: 770
Stream size: 21.9 KiB (0%)
Language: Italian
Default: No
Forced: No

Text #13
ID: 15
Format: UTF-8
Codec ID: S_TEXT/UTF8
Codec ID/Info: UTF-8 Plain Text
Duration: 45 min 53 s
Bit rate: 61 b/s
Frame rate: 0.270 FPS
Count of elements: 743
Stream size: 20.7 KiB (0%)
Language: Japanese
Default: No
Forced: No

Text #14
ID: 16
Format: UTF-8
Codec ID: S_TEXT/UTF8
Codec ID/Info: UTF-8 Plain Text
Duration: 45 min 53 s
Bit rate: 79 b/s
Frame rate: 0.281 FPS
Count of elements: 773
Stream size: 26.8 KiB (0%)
Language: Korean
Default: No
Forced: No

Text #15
ID: 17
Format: UTF-8
Codec ID: S_TEXT/UTF8
Codec ID/Info: UTF-8 Plain Text
Duration: 45 min 48 s
Bit rate: 60 b/s
Frame rate: 0.205 FPS
Count of elements: 564
Stream size: 20.4 KiB (0%)
Language: Dutch
Default: No
Forced: No

Text #16
ID: 18
Format: UTF-8
Codec ID: S_TEXT/UTF8
Codec ID/Info: UTF-8 Plain Text
Duration: 45 min 48 s
Bit rate: 65 b/s
Frame rate: 0.201 FPS
Count of elements: 552
Stream size: 21.9 KiB (0%)
Language: Norwegian
Default: No
Forced: No

Text #17
ID: 19
Format: UTF-8
Codec ID: S_TEXT/UTF8
Codec ID/Info: UTF-8 Plain Text
Duration: 45 min 53 s
Bit rate: 63 b/s
Frame rate: 0.272 FPS
Count of elements: 750
Stream size: 21.4 KiB (0%)
Language: Polish
Default: No
Forced: No

Text #18
ID: 20
Format: UTF-8
Codec ID: S_TEXT/UTF8
Codec ID/Info: UTF-8 Plain Text
Duration: 45 min 48 s
Bit rate: 68 b/s
Frame rate: 0.269 FPS
Count of elements: 740
Stream size: 23.0 KiB (0%)
Title: Portuguese (Brazil)
Language: Portuguese (BR)
Default: No
Forced: No

Text #19
ID: 21
Format: UTF-8
Codec ID: S_TEXT/UTF8
Codec ID/Info: UTF-8 Plain Text
Duration: 45 min 48 s
Bit rate: 68 b/s
Frame rate: 0.280 FPS
Count of elements: 769
Stream size: 23.1 KiB (0%)
Title: Portuguese (Portugal)
Language: Portuguese (PT)
Default: No
Forced: No

Text #20
ID: 22
Format: UTF-8
Codec ID: S_TEXT/UTF8
Codec ID/Info: UTF-8 Plain Text
Duration: 45 min 48 s
Bit rate: 64 b/s
Frame rate: 0.219 FPS
Count of elements: 603
Stream size: 21.7 KiB (0%)
Language: Romanian
Default: No
Forced: No

Text #21
ID: 23
Format: UTF-8
Codec ID: S_TEXT/UTF8
Codec ID/Info: UTF-8 Plain Text
Duration: 45 min 53 s
Bit rate: 62 b/s
Frame rate: 0.266 FPS
Count of elements: 732
Stream size: 21.0 KiB (0%)
Language: Slovak
Default: No
Forced: No

Text #22
ID: 24
Format: UTF-8
Codec ID: S_TEXT/UTF8
Codec ID/Info: UTF-8 Plain Text
Duration: 45 min 48 s
Bit rate: 64 b/s
Frame rate: 0.269 FPS
Count of elements: 738
Stream size: 21.7 KiB (0%)
Language: Swedish
Default: No
Forced: No

Text #23
ID: 25
Format: UTF-8
Codec ID: S_TEXT/UTF8
Codec ID/Info: UTF-8 Plain Text
Duration: 45 min 53 s
Bit rate: 68 b/s
Frame rate: 0.280 FPS
Count of elements: 770
Stream size: 23.1 KiB (0%)
Language: Turkish
Default: No
Forced: No

Text #24
ID: 26
Format: UTF-8
Codec ID: S_TEXT/UTF8
Codec ID/Info: UTF-8 Plain Text
Duration: 45 min 53 s
Bit rate: 62 b/s
Frame rate: 0.280 FPS
Count of elements: 771
Stream size: 21.2 KiB (0%)
Language: Chinese (Traditional)
Default: No
Forced: No

ssl  EZTV RSS EZTV Status | EZTV API | DMCA: [email protected]