eztv.yt | eztvstatus.org
Search title:  
TV Packs only
 

Smiling Friends S02E02 Mr President 1080p AMZN WEB-DL DDP5 1 H 264-FLUX EZTV

Episode Breakdown
Smiling Friends
Smiling Friends TV Show S02E02

Season: 2
Episode: 2
Air Date: 12 May, 2024
Download Links
     Torrent Download     Magnet Download
     Anonymous Download
Added 14 days ago by eztv (verified).
Tracker Statistics
Seeds: 418
Peers: 52
Stats generated @ 15:19 on 27th May 2024
Torrent Info
Torrent File: Smiling Friends S02E02 Mr President 1080p AMZN WEB-DL DDP5 1 H 264-FLUX[EZTVx.to].mkv
Torrent Hash: 9EAFDC348E0AF81D98257EF12F3FC6E98C171D22
Filesize: 380 MB
Released: 13th May 2024

File Format: MKV (Matroska)
Resolution: 1920x1080 px
Aspect Ratio: 16:9
Alternate Releases S L
Smiling Friends S02E02 REPACK 1080p WEB h264-EDITH 86 31
Smiling Friends S02E02 REPACK 1080p HEVC x265-MeGusta 35 7

Smiling Friends S02E02 - Mr President

Summary:

Yes, You Do Need to Watch This Important Episode of Smiling Friends Where They Help the President Smile. Here's Why That's a Good Thing.



Smiling Friends S02E02 Mr President 1080p AMZN WEB-DL DDP5 1 H 264-FLUX EZTV
Smiling Friends S2E2 Screenshot


General
Unique ID: 307469340344077236508497401952916886584 (0xE75070E26CB12748D555594A6D225438)
Complete name: Smiling Friends S02E02 Mr President 1080p AMZN WEB-DL DDP5 1 H 264-FLUX.mkv
Format: Matroska
Format version: Version 4
File size: 380 MiB
Duration: 11 min 18 s
Overall bit rate: 4 694 kb/s
Frame rate: 23.976 FPS
Writing application: mkvmerge v83.0 ('Circle Of Friends') 64-bit
Writing library: libebml v1.4.5 + libmatroska v1.7.1

Video
ID: 1
Format: AVC
Format/Info: Advanced Video Codec
Format profile: High@L4
Format settings: CABAC / 4 Ref Frames
Format settings, CABAC: Yes
Format settings, Reference frames: 4 frames
Codec ID: V_MPEG4/ISO/AVC
Duration: 11 min 18 s
Bit rate mode: Constant
Bit rate: 4 052 kb/s
Nominal bit rate: 10 000 kb/s
Width: 1 920 pixels
Height: 1 080 pixels
Display aspect ratio: 16:9
Frame rate mode: Constant
Frame rate: 23.976 (24000/1001) FPS
Color space: YUV
Chroma subsampling: 4:2:0
Bit depth: 8 bits
Scan type: Progressive
Bits/(Pixel*Frame): 0.081
Stream size: 328 MiB (86%)
Language: English (US)
Default: Yes
Forced: No
Color range: Limited
Color primaries: BT.709
Transfer characteristics: BT.709
Matrix coefficients: BT.709

Audio
ID: 2
Format: E-AC-3
Format/Info: Enhanced AC-3
Commercial name: Dolby Digital Plus
Codec ID: A_EAC3
Duration: 11 min 18 s
Bit rate mode: Constant
Bit rate: 640 kb/s
Channel(s): 6 channels
Channel layout: L R C LFE Ls Rs
Sampling rate: 48.0 kHz
Frame rate: 31.250 FPS (1536 SPF)
Compression mode: Lossy
Stream size: 51.8 MiB (14%)
Language: English
Service kind: Complete Main
Default: Yes
Forced: No

Text #1
ID: 3
Format: UTF-8
Codec ID: S_TEXT/UTF8
Codec ID/Info: UTF-8 Plain Text
Duration: 11 min 3 s
Bit rate: 118 b/s
Frame rate: 0.452 FPS
Count of elements: 300
Stream size: 9.57 KiB (0%)
Language: English (US)
Default: No
Forced: No

Text #2
ID: 4
Format: UTF-8
Codec ID: S_TEXT/UTF8
Codec ID/Info: UTF-8 Plain Text
Duration: 11 min 7 s
Bit rate: 123 b/s
Frame rate: 0.505 FPS
Count of elements: 337
Stream size: 10.1 KiB (0%)
Title: SDH
Language: English (US)
Default: No
Forced: No

Menu
00:00:00.000: en:Scene 1
00:11:13.000: en:Outro
ssl  EZTV RSS EZTV Status | EZTV API | DMCA: [email protected]