eztv.yt | eztvstatus.org
Search title:  
TV Packs only
 

Dark Matter 2024 S01E06 720p x264-FENiX EZTV

Episode Breakdown
Dark Matter
Dark Matter TV Show S01E06

Season: 1
Episode: 6
Air Date: 5 June, 2024
Download Links
     Torrent Download     Magnet Download
     Anonymous Download
Added 1 month ago by eztv (verified).
Tracker Statistics
Seeds: 67
Peers: 13
Stats generated @ 00:08 on 14th Jul 2024
Torrent Info
Torrent File: Dark Matter 2024 S01E06 720p x264-FENiX[EZTVx.to].mkv
Torrent Hash: 4758C8D1FE1CB93F2B4F1F5C3E2A5F1FC8B51BC7
Filesize: 524 MB
Released: 5th Jun 2024

File Format: MKV (Matroska)
Resolution: 1280x720 px
Aspect Ratio: 16:9
Alternate Releases S L
Dark Matter 2024 S01E06 1080p WEB H264-SuccessfulCrab 528 124
Dark Matter 2024 S01E06 Superposition 1080p ATVP WEB-DL DDP5 1 H 264-NTb 35 6
Dark Matter 2024 S01E06 MULTI 1080p WEB H264-HiggsBoson 10 2
Dark Matter 2024 S01E06 1080p x265-ELiTE 150 58
Dark Matter 2024 S01E06 Superposition 720p ATVP WEB-DL DDP5 1 H 264-NTb 65 16
Dark Matter 2024 S01E06 720p x265-T0PAZ 20 2
Dark Matter 2024 S01E06 XviD-AFG 28 4

Dark Matter S01E06 - Superposition

Summary:

Daniela suspects something's not right with her husband. Jason and Amanda grow closer.



Dark Matter 2024 S01E06 720p x264-FENiX EZTV
Dark Matter S1E6 Screenshot


General
Unique ID: 181188122016649188382411784655066832324 (0x884F901F3088987DBDA06EDFB6EF1DC4)
Complete name: Dark Matter 2024 S01E06 720p x264-FENiX.mkv
Format: Matroska
Format version: Version 4
File size: 524 MiB
Duration: 54 min 51 s
Overall bit rate: 1 336 kb/s
Frame rate: 23.976 FPS
Movie name: Dark.Matter.2024.S01E06
Writing application: Lavf60.16.100
Writing library: Lavf60.16.100
Comment: FENiX-Wed-05-Jun-2024,02:33:38,720p,22,fast,N,9893213,1920,960,2
ErrorDetectionType: Per level 1

Video
ID: 1
Format: AVC
Format/Info: Advanced Video Codec
Format profile: [email protected]
Format settings: CABAC / 4 Ref Frames
Format settings, CABAC: Yes
Format settings, Reference frames: 4 frames
Codec ID: V_MPEG4/ISO/AVC
Duration: 54 min 51 s
Bit rate: 861 kb/s
Width: 1 280 pixels
Height: 640 pixels
Display aspect ratio: 2.000
Frame rate mode: Constant
Frame rate: 23.976 (24000/1001) FPS
Color space: YUV
Chroma subsampling: 4:2:0
Bit depth: 8 bits
Scan type: Progressive
Bits/(Pixel*Frame): 0.044
Stream size: 338 MiB (64%)
Writing library: x264 core 164
Encoding settings: cabac=1 / ref=2 / deblock=1:0:0 / analyse=0x3:0x113 / me=hex / subme=6 / psy=1 / psy_rd=1.00:0.00 / mixed_ref=1 / me_range=16 / chroma_me=1 / trellis=1 / 8x8dct=1 / cqm=0 / deadzone=21,11 / fast_pskip=1 / chroma_qp_offset=-2 / threads=20 / lookahead_threads=3 / sliced_threads=0 / nr=0 / decimate=1 / interlaced=0 / bluray_compat=0 / constrained_intra=0 / bframes=3 / b_pyramid=2 / b_adapt=1 / b_bias=0 / direct=1 / weightb=1 / open_gop=0 / weightp=1 / keyint=250 / keyint_min=23 / scenecut=40 / intra_refresh=0 / rc_lookahead=30 / rc=crf / mbtree=1 / crf=22.0 / qcomp=0.60 / qpmin=0 / qpmax=69 / qpstep=4 / ip_ratio=1.40 / aq=1:1.00
Default: Yes
Forced: No
Color range: Limited
Color primaries: BT.709
Transfer characteristics: BT.709
Matrix coefficients: BT.709

Audio
ID: 2
Format: AC-3
Format/Info: Audio Coding 3
Commercial name: Dolby Digital
Codec ID: A_AC3
Duration: 54 min 51 s
Bit rate mode: Constant
Bit rate: 448 kb/s
Channel(s): 6 channels
Channel layout: L R C LFE Ls Rs
Sampling rate: 48.0 kHz
Frame rate: 31.250 FPS (1536 SPF)
Bit depth: 32 bits
Compression mode: Lossy
Stream size: 176 MiB (34%)
Writing library: Lavc60.31.102 ac3
Language: English
Service kind: Complete Main
Default: Yes
Forced: No

Text
ID: 3
Format: UTF-8
Codec ID: S_TEXT/UTF8
Codec ID/Info: UTF-8 Plain Text
Duration: 53 min 3 s
Language: English
Default: No
Forced: No
ssl  EZTV RSS EZTV Status | EZTV API | DMCA: [email protected]