eztv.yt | eztvstatus.org
Search title:  
TV Packs only
 

Below Deck S11E09 The Real Housewives of Grenada 1080p AMZN WEB-DL DDP2 0 H 264-NTb EZTV

Episode Breakdown
Below Deck
Below Deck TV Show S11E09

Season: 11
Episode: 9
Air Date: 1 April, 2024
Download Links
     Torrent Download     Magnet Download
     Anonymous Download
Added 1 month ago by eztv (verified).
Tracker Statistics
Seeds: 53
Peers: 2
Stats generated @ 15:41 on 27th May 2024
Torrent Info
Torrent File: Below Deck S11E09 The Real Housewives of Grenada 1080p AMZN WEB-DL DDP2 0 H 264-NTb[EZTVx.to].mkv
Torrent Hash: 8C3A505960B7F6B6865C92C63AAC52CF6F5E2FF9
Filesize: 2.95 GB
Released: 2nd Apr 2024

File Format: MKV (Matroska)
Resolution: 1920x1080 px
Aspect Ratio: 16:9
Alternate Releases S L
Below Deck S11E09 The Real Housewives of Grenada 720p AMZN WEB-DL DDP2 0 H 264-NTb 24 1
Below Deck S11E09 1080p WEB h264-EDITH 3 2
Below Deck S11E09 720p HEVC x265-MeGusta 13 4
Below Deck S11E09 1080p HEVC x265-MeGusta 14 2
Below Deck S11E09 XviD-AFG 2 1
Below Deck S11E09 480p x264-mSD 7 0
Below Deck S11E09 The Real Housewives of Grenada 1080p AMZN WEB-DL DDP2 0 H 264-FLUX 6 1

Below Deck S11E09 - The Real Housewives of Grenada

Summary:

Chef Anthony tries to shake off his past mistakes as he takes on the most dietary restrictions of the charter season yet. Sunny steps up her skills on deck as Dylan vies for the Lead Deckhand position. The relentless demands of a famous housewife push the shorthanded interior team to their absolute limits.



Below Deck S11E09 The Real Housewives of Grenada 1080p AMZN WEB-DL DDP2 0 H 264-NTb EZTV
Below Deck S11E9 Screenshot


General
Unique ID: 324990279261543459327727735558455988579 (0xF47ED9DE2E3F0B9550D7763C3CCC9163)
Complete name: Below Deck S11E09 The Real Housewives of Grenada 1080p AMZN WEB-DL DDP2 0 H 264-NTb.mkv
Format: Matroska
Format version: Version 4
File size: 2.95 GiB
Duration: 42 min 35 s
Overall bit rate: 9 920 kb/s
Frame rate: 23.976 FPS
Writing application: mkvmerge v81.0 ('Milliontown') 64-bit
Writing library: libebml v1.4.4 + libmatroska v1.7.1

Video
ID: 1
Format: AVC
Format/Info: Advanced Video Codec
Format profile: High@L4
Format settings: CABAC / 4 Ref Frames
Format settings, CABAC: Yes
Format settings, Reference frames: 4 frames
Codec ID: V_MPEG4/ISO/AVC
Duration: 42 min 35 s
Bit rate mode: Constant
Bit rate: 10 000 kb/s
Width: 1 920 pixels
Height: 1 080 pixels
Display aspect ratio: 16:9
Frame rate mode: Constant
Frame rate: 23.976 (24000/1001) FPS
Color space: YUV
Chroma subsampling: 4:2:0
Bit depth: 8 bits
Scan type: Progressive
Bits/(Pixel*Frame): 0.201
Stream size: 2.88 GiB (98%)
Default: Yes
Forced: No
Color range: Limited
Color primaries: BT.709
Transfer characteristics: BT.709
Matrix coefficients: BT.709

Audio
ID: 2
Format: E-AC-3
Format/Info: Enhanced AC-3
Commercial name: Dolby Digital Plus
Codec ID: A_EAC3
Duration: 42 min 35 s
Bit rate mode: Constant
Bit rate: 224 kb/s
Channel(s): 2 channels
Channel layout: L R
Sampling rate: 48.0 kHz
Frame rate: 31.250 FPS (1536 SPF)
Compression mode: Lossy
Stream size: 68.3 MiB (2%)
Language: English (US)
Service kind: Complete Main
Default: Yes
Forced: No

Text #1
ID: 3
Format: UTF-8
Codec ID: S_TEXT/UTF8
Codec ID/Info: UTF-8 Plain Text
Duration: 42 min 32 s
Bit rate: 106 b/s
Frame rate: 0.417 FPS
Count of elements: 1065
Stream size: 33.3 KiB (0%)
Language: English (US)
Default: No
Forced: No

Text #2
ID: 4
Format: UTF-8
Codec ID: S_TEXT/UTF8
Codec ID/Info: UTF-8 Plain Text
Duration: 42 min 32 s
Bit rate: 107 b/s
Frame rate: 0.421 FPS
Count of elements: 1074
Stream size: 33.4 KiB (0%)
Title: SDH
Language: English (US)
Default: No
Forced: No
ssl  EZTV RSS EZTV Status | EZTV API | DMCA: [email protected]