eztv.yt | eztvstatus.org
Search title:  
TV Packs only
 

Below Deck S11E09 The Real Housewives of Grenada 1080p AMZN WEB-DL DDP2 0 H 264-FLUX EZTV

Episode Breakdown
Below Deck
Below Deck TV Show S11E09

Season: 11
Episode: 9
Air Date: 1 April, 2024
Download Links
     Torrent Download     Magnet Download
     Anonymous Download
Added 18 days ago by eztv (verified).
Tracker Statistics
Seeds: 13
Peers: 4
Stats generated @ 19:21 on 21st Apr 2024
Torrent Info
Torrent File: Below Deck S11E09 The Real Housewives of Grenada 1080p AMZN WEB-DL DDP2 0 H 264-FLUX[EZTVx.to].mkv
Torrent Hash: 91E15AC389FFE5682BAA1D90BD81FE258D0703AD
Filesize: 2.95 GB
Released: 3rd Apr 2024

File Format: MKV (Matroska)
Resolution: 1920x1080 px
Aspect Ratio: 16:9
Alternate Releases S L
Below Deck S11E09 The Real Housewives of Grenada 720p AMZN WEB-DL DDP2 0 H 264-NTb 44 4
Below Deck S11E09 The Real Housewives of Grenada 1080p AMZN WEB-DL DDP2 0 H 264-NTb 113 3
Below Deck S11E09 1080p WEB h264-EDITH 13 6
Below Deck S11E09 720p HEVC x265-MeGusta 30 7
Below Deck S11E09 1080p HEVC x265-MeGusta 27 11
Below Deck S11E09 XviD-AFG 6 3
Below Deck S11E09 480p x264-mSD 12 2

Below Deck S11E09 - The Real Housewives of Grenada

Summary:

Chef Anthony tries to shake off his past mistakes as he takes on the most dietary restrictions of the charter season yet. Sunny steps up her skills on deck as Dylan vies for the Lead Deckhand position. The relentless demands of a famous housewife push the shorthanded interior team to their absolute limits.



Below Deck S11E09 The Real Housewives of Grenada 1080p AMZN WEB-DL DDP2 0 H 264-FLUX EZTV
Below Deck S11E9 Screenshot


General
Unique ID: 152898839925668334650984339688724565573 (0x73073ED45609A851EFB74D78E9670E45)
Complete name: Below Deck S11E09 The Real Housewives of Grenada 1080p AMZN WEB-DL DDP2 0 H 264-FLUX.mkv
Format: Matroska
Format version: Version 4
File size: 2.95 GiB
Duration: 42 min 35 s
Overall bit rate: 9 907 kb/s
Frame rate: 23.976 FPS
Writing application: mkvmerge v82.0 ('I'm The President') 64-bit
Writing library: libebml v1.4.5 + libmatroska v1.7.1

Video
ID: 1
Format: AVC
Format/Info: Advanced Video Codec
Format profile: High@L4
Format settings: CABAC / 4 Ref Frames
Format settings, CABAC: Yes
Format settings, Reference frames: 4 frames
Codec ID: V_MPEG4/ISO/AVC
Duration: 42 min 35 s
Bit rate mode: Constant
Bit rate: 10 000 kb/s
Width: 1 920 pixels
Height: 1 080 pixels
Display aspect ratio: 16:9
Frame rate mode: Constant
Frame rate: 23.976 (24000/1001) FPS
Color space: YUV
Chroma subsampling: 4:2:0
Bit depth: 8 bits
Scan type: Progressive
Bits/(Pixel*Frame): 0.201
Stream size: 2.88 GiB (98%)
Language: English (US)
Default: Yes
Forced: No
Color range: Limited
Color primaries: BT.709
Transfer characteristics: BT.709
Matrix coefficients: BT.709

Audio
ID: 2
Format: E-AC-3
Format/Info: Enhanced AC-3
Commercial name: Dolby Digital Plus
Codec ID: A_EAC3
Duration: 42 min 35 s
Bit rate mode: Constant
Bit rate: 224 kb/s
Channel(s): 2 channels
Channel layout: L R
Sampling rate: 48.0 kHz
Frame rate: 31.250 FPS (1536 SPF)
Compression mode: Lossy
Stream size: 68.2 MiB (2%)
Language: English
Service kind: Complete Main
Default: Yes
Forced: No

Text #1
ID: 3
Format: UTF-8
Codec ID: S_TEXT/UTF8
Codec ID/Info: UTF-8 Plain Text
Duration: 42 min 29 s
Bit rate: 107 b/s
Frame rate: 0.418 FPS
Count of elements: 1065
Stream size: 33.3 KiB (0%)
Language: English (US)
Default: No
Forced: No

Text #2
ID: 4
Format: UTF-8
Codec ID: S_TEXT/UTF8
Codec ID/Info: UTF-8 Plain Text
Duration: 42 min 29 s
Bit rate: 107 b/s
Frame rate: 0.421 FPS
Count of elements: 1074
Stream size: 33.4 KiB (0%)
Title: SDH
Language: English (US)
Default: No
Forced: No

Menu
00:00:00.000: en:Scene 1
00:42:30.000: en:End Credits
ssl  EZTV RSS EZTV Status | EZTV API | DMCA: [email protected]