eztv.yt | eztvstatus.org
Search title:  
TV Packs only
 

FBI International S03E07 720p x264-FENiX EZTV

Episode Breakdown
FBI: International
FBI: International TV Show S03E07

Season: 3
Episode: 7
Air Date: 2 April, 2024
Download Links
     Torrent Download     Magnet Download
     Anonymous Download
Added 18 days ago by eztv (verified).
Tracker Statistics
Seeds: 12
Peers: 5
Stats generated @ 19:27 on 21st Apr 2024
Torrent Info
Torrent File: FBI International S03E07 720p x264-FENiX[EZTVx.to].mkv
Torrent Hash: 8D9BDAACD1B766B4682667B7D1DAF5D2ECBA91DC
Filesize: 563 MB
Released: 3rd Apr 2024

File Format: MKV (Matroska)
Resolution: 1280x720 px
Aspect Ratio: 16:9
Alternate Releases S L
FBI International S03E07 480p x264-mSD 51 11
FBI International S03E07 720p HEVC x265-MeGusta 59 13
FBI International S03E07 720p HDTV x264-SYNCOPY 18 6
FBI International S03E07 Andiamo 720p AMZN WEB-DL DDP5 1 H 264-FLUX 10 1
FBI International S03E07 Andiamo 1080p AMZN WEB-DL DDP5 1 H 264-FLUX 32 5
FBI International S03E07 1080p HEVC x265-MeGusta 44 12
FBI International S03E07 1080p WEB h264-ETHEL 3 1

FBI: International S03E07 - Andiamo!

Summary:

The Fly Team heads to the Tuscan countryside after an American couple's son is kidnapped right outside their new home. Concerns are heightened as fingers begin to point to the mafia.



FBI International S03E07 720p x264-FENiX EZTV
FBI: International S3E7 Screenshot


General
Unique ID: 148682758696511969278648022011742532073 (0x6FDB41F9DB7EC5FA2D1C0B0E29C431E9)
Complete name: FBI International S03E07 720p x264-FENiX.mkv
Format: Matroska
Format version: Version 4
File size: 563 MiB
Duration: 42 min 39 s
Overall bit rate: 1 845 kb/s
Frame rate: 23.976 FPS
Movie name: FBI.International.S03E07
Writing application: Lavf60.16.100
Writing library: Lavf60.16.100
Comment: FENiX-Wed-03-Apr-2024,06:26:26,720p,22,fast,N,6826111,1920,1080,1.78
ErrorDetectionType: Per level 1

Video
ID: 1
Format: AVC
Format/Info: Advanced Video Codec
Format profile: [email protected]
Format settings: CABAC / 4 Ref Frames
Format settings, CABAC: Yes
Format settings, Reference frames: 4 frames
Codec ID: V_MPEG4/ISO/AVC
Duration: 42 min 39 s
Bit rate: 1 361 kb/s
Width: 1 280 pixels
Height: 720 pixels
Display aspect ratio: 16:9
Frame rate mode: Constant
Frame rate: 23.976 (24000/1001) FPS
Color space: YUV
Chroma subsampling: 4:2:0
Bit depth: 8 bits
Scan type: Progressive
Bits/(Pixel*Frame): 0.062
Stream size: 415 MiB (74%)
Writing library: x264 core 164
Encoding settings: cabac=1 / ref=2 / deblock=1:0:0 / analyse=0x3:0x113 / me=hex / subme=6 / psy=1 / psy_rd=1.00:0.00 / mixed_ref=1 / me_range=16 / chroma_me=1 / trellis=1 / 8x8dct=1 / cqm=0 / deadzone=21,11 / fast_pskip=1 / chroma_qp_offset=-2 / threads=22 / lookahead_threads=3 / sliced_threads=0 / nr=0 / decimate=1 / interlaced=0 / bluray_compat=0 / constrained_intra=0 / bframes=3 / b_pyramid=2 / b_adapt=1 / b_bias=0 / direct=1 / weightb=1 / open_gop=0 / weightp=1 / keyint=250 / keyint_min=23 / scenecut=40 / intra_refresh=0 / rc_lookahead=30 / rc=crf / mbtree=1 / crf=22.0 / qcomp=0.60 / qpmin=0 / qpmax=69 / qpstep=4 / ip_ratio=1.40 / aq=1:1.00
Default: Yes
Forced: No
Color range: Limited
Color primaries: BT.709
Transfer characteristics: BT.709
Matrix coefficients: BT.709

Audio
ID: 2
Format: AC-3
Format/Info: Audio Coding 3
Commercial name: Dolby Digital
Codec ID: A_AC3
Duration: 42 min 39 s
Bit rate mode: Constant
Bit rate: 448 kb/s
Channel(s): 6 channels
Channel layout: L R C LFE Ls Rs
Sampling rate: 48.0 kHz
Frame rate: 31.250 FPS (1536 SPF)
Bit depth: 32 bits
Compression mode: Lossy
Stream size: 137 MiB (24%)
Writing library: Lavc60.31.102 ac3
Language: English
Service kind: Complete Main
Default: Yes
Forced: No

Text
ID: 3
Format: UTF-8
Codec ID: S_TEXT/UTF8
Codec ID/Info: UTF-8 Plain Text
Duration: 42 min 34 s
Language: English
Default: No
Forced: No

ssl  EZTV RSS EZTV Status | EZTV API | DMCA: [email protected]